<?xml version="1.0" standalone="no"?>
<!DOCTYPE svg PUBLIC "-//W3C//DTD SVG 1.1//EN" "http://www.w3.org/Graphics/SVG/1.1/DTD/svg11.dtd" >
<svg xmlns="http://www.w3.org/2000/svg" xmlns:xlink="http://www.w3.org/1999/xlink" version="1.1">
<metadata>
Created by FontForge 20161003 at Tue Aug 28 08:00:52 2018
 By www-data
\(c\) 2015 Apple Inc. All rights reserved.
</metadata>
<defs>
<font id="SFUIText-Regular" horiz-adv-x="0" >
  <font-face 
    font-family="SF UI  Text"
    font-weight="400"
    font-stretch="normal"
    units-per-em="2048"
    panose-1="0 0 5 0 0 0 0 0 0 0"
    ascent="1638"
    descent="-410"
    x-height="1078"
    cap-height="1443"
    bbox="-784 -573 2698 2173"
    underline-thickness="50"
    underline-position="-75"
    stemh="148"
    stemv="170"
    unicode-range="U+000D-FB02"
  />
<missing-glyph horiz-adv-x="1293" 
d="M120 0v1365h1053v-1365h-1053zM501 313c0 -63 49 -107 120 -107c74 0 122 43 122 107c0 65 -48 108 -122 108c-72 0 -120 -44 -120 -108zM339 888h169c1 79 49 130 125 130c72 0 120 -43 120 -110c0 -51 -20 -78 -103 -138c-92 -65 -125 -129 -118 -221l1 -18h166v15
c0 64 15 87 107 153c97 70 133 130 133 218c0 151 -117 250 -296 250c-190 0 -310 -109 -304 -279z" />
    <glyph glyph-name=".notdef" horiz-adv-x="1293" 
d="M120 0v1365h1053v-1365h-1053zM501 313c0 -63 49 -107 120 -107c74 0 122 43 122 107c0 65 -48 108 -122 108c-72 0 -120 -44 -120 -108zM339 888h169c1 79 49 130 125 130c72 0 120 -43 120 -110c0 -51 -20 -78 -103 -138c-92 -65 -125 -129 -118 -221l1 -18h166v15
c0 64 15 87 107 153c97 70 133 130 133 218c0 151 -117 250 -296 250c-190 0 -310 -109 -304 -279z" />
    <glyph glyph-name=".null" 
 />
    <glyph glyph-name="CR" unicode="&#xd;" 
 />
    <glyph glyph-name="space" unicode=" " horiz-adv-x="578" 
 />
    <glyph glyph-name="exclam" unicode="!" horiz-adv-x="637" 
d="M218 1444h200l-17 -964h-166zM180 121c0 82 58 140 139 140s138 -58 138 -140c0 -81 -57 -139 -138 -139s-139 58 -139 139z" />
    <glyph glyph-name="quotedbl" unicode="&#x22;" horiz-adv-x="895" 
d="M339 904h-160v539h160v-539zM716 904h-160v539h160v-539z" />
    <glyph glyph-name="numbersign" unicode="#" horiz-adv-x="1296" 
d="M1195 901h-216l-70 -344h216l-29 -144h-216l-84 -413h-144l85 413h-307l-84 -413h-143l84 413h-216l31 144h216l69 344h-216l29 143h216l82 399h143l-81 -399h306l82 399h144l-83 -399h216zM528 903l-70 -349h309l71 349h-310z" />
    <glyph glyph-name="dollar" unicode="$" horiz-adv-x="1328" 
d="M732 -137h-134v134c-271 20 -447 177 -448 398h171c11 -134 113 -223 277 -243v520l-80 22c-215 57 -333 189 -333 373c0 218 158 368 413 393v140h134v-139c248 -21 413 -175 420 -392h-170c-4 125 -103 219 -250 237v-489l86 -21c247 -66 360 -188 360 -388
c0 -237 -164 -387 -446 -410v-135zM1005 394c0 133 -85 211 -273 251v-496c174 9 273 98 273 245zM357 1077c0 -118 83 -198 241 -231v460c-140 -8 -241 -104 -241 -229z" />
    <glyph glyph-name="percent" unicode="%" horiz-adv-x="1610" 
d="M1223 103c88 0 147 88 147 220c0 135 -57 219 -147 219s-148 -86 -148 -219s59 -220 148 -220zM1223 -25c-180 0 -308 144 -308 348c0 203 128 347 308 347s307 -143 307 -347s-127 -348 -307 -348zM388 773c-180 0 -308 144 -308 348c0 203 128 347 308 347
s307 -143 307 -347s-127 -348 -307 -348zM372 0h-184l551 752l506 691h182l-560 -766zM388 901c88 0 147 88 147 220c0 135 -57 219 -147 219s-148 -86 -148 -219s59 -220 148 -220z" />
    <glyph glyph-name="ampersand" unicode="&#x26;" horiz-adv-x="1457" 
d="M1203 0l-133 144c-123 -108 -292 -171 -467 -171c-287 0 -488 170 -488 412c0 171 93 301 286 403c13 6 40 20 56 28c-133 140 -181 233 -181 338c0 185 157 323 368 323c213 0 368 -136 368 -325c0 -148 -89 -256 -312 -373l361 -388c45 90 68 208 68 388v25h168v-26
c0 -224 -40 -387 -119 -509l251 -269h-226zM505 682c-139 -72 -210 -172 -210 -285c0 -162 131 -272 324 -272c131 0 266 52 345 135l-408 446c-11 -4 -37 -17 -51 -24zM603 881c176 90 240 162 240 265c0 112 -81 188 -198 188c-115 0 -197 -78 -197 -190
c0 -80 41 -150 155 -263z" />
    <glyph glyph-name="quotesingle" unicode="'" horiz-adv-x="518" 
d="M339 904h-160v539h160v-539z" />
    <glyph glyph-name="parenleft" unicode="(" horiz-adv-x="728" 
d="M601 -277h-152c-172 215 -270 534 -270 877c0 342 83 590 280 842h145c-145 -170 -248 -519 -248 -842c0 -312 75 -579 245 -877z" />
    <glyph glyph-name="parenright" unicode=")" horiz-adv-x="728" 
d="M126 -277c170 298 245 565 245 877c0 325 -102 673 -247 842h146c197 -252 279 -500 279 -842c0 -341 -98 -660 -270 -877h-153z" />
    <glyph glyph-name="asterisk" unicode="*" horiz-adv-x="1054" 
d="M631 1062l259 -131l-67 -116l-244 158l16 -289h-136l16 290l-244 -159l-67 116l260 131l-260 132l67 118l244 -163l-16 294h136l-16 -294l244 163l67 -118z" />
    <glyph glyph-name="plus" unicode="+" horiz-adv-x="1328" 
d="M738 506v-435h-148v435h-435v148h435v435h148v-435h435v-148h-435z" />
    <glyph glyph-name="comma" unicode="," horiz-adv-x="628" 
d="M260 -367h-150l96 569h202z" />
    <glyph glyph-name="hyphen" unicode="-" horiz-adv-x="966" 
d="M811 499h-656v163h656v-163z" />
    <glyph glyph-name="period" unicode="." horiz-adv-x="608" 
d="M304 -10c-71 0 -130 59 -130 130c0 72 59 130 130 130c72 0 130 -58 130 -130c0 -71 -58 -130 -130 -130z" />
    <glyph glyph-name="slash" unicode="/" horiz-adv-x="712" 
d="M210 -325h-150l440 1768h152z" />
    <glyph glyph-name="zero" unicode="0" horiz-adv-x="1290" 
d="M646 -34c-325 0 -512 276 -512 756c0 476 189 755 512 755c321 0 510 -280 510 -758c0 -479 -186 -753 -510 -753zM646 123c213 0 329 212 329 599c0 383 -118 597 -329 597s-331 -216 -331 -597c0 -386 118 -599 331 -599z" />
    <glyph glyph-name="one" unicode="1" horiz-adv-x="955" 
d="M506 0v1243h-16l-367 -266v190l384 276h179v-1443h-180z" />
    <glyph glyph-name="two" unicode="2" horiz-adv-x="1237" 
d="M152 1037c0 256 194 440 462 440c259 0 457 -176 457 -405c0 -150 -68 -267 -305 -521l-347 -373v-16h676v-162h-934v124l499 545c186 202 231 280 231 396c0 144 -123 255 -282 255c-169 0 -283 -113 -283 -283v-1h-174v1z" />
    <glyph glyph-name="three" unicode="3" horiz-adv-x="1284" 
d="M456 665v154h175c164 0 280 106 280 256c0 147 -111 245 -277 245s-275 -92 -290 -247h-175c18 250 197 404 472 404c252 0 453 -168 453 -378c0 -172 -95 -298 -253 -336v-16c196 -25 315 -161 315 -358c0 -238 -223 -423 -508 -423c-293 0 -495 163 -508 410h174
c16 -154 146 -253 332 -253c190 0 325 113 325 271c0 167 -127 271 -332 271h-183z" />
    <glyph glyph-name="four" unicode="4" horiz-adv-x="1318" 
d="M820 0v299h-703v164c129 229 358 591 618 980h261v-983h205v-161h-205v-299h-176zM301 471v-12h520v817h-12c-148 -215 -336 -513 -508 -805z" />
    <glyph glyph-name="five" unicode="5" horiz-adv-x="1267" 
d="M637 -34c-273 0 -469 169 -485 418h177c16 -156 140 -260 310 -260c193 0 322 132 322 330s-130 333 -319 333c-131 0 -239 -59 -298 -162h-169l79 818h805v-161h-664l-41 -463h16c70 82 172 123 305 123c274 0 466 -199 466 -483c0 -293 -205 -493 -504 -493z" />
    <glyph glyph-name="six" unicode="6" horiz-adv-x="1305" 
d="M671 -33c-217 0 -383 116 -473 328c-47 110 -70 243 -70 402c0 496 202 780 555 780c245 0 427 -145 473 -377h-185c-39 135 -148 217 -290 217c-235 0 -368 -208 -378 -592h16c71 140 212 222 384 222c275 0 474 -203 474 -483c0 -290 -210 -497 -506 -497zM669 125
c185 0 326 144 326 333c0 197 -133 333 -324 333s-328 -136 -328 -327c0 -193 141 -339 326 -339z" />
    <glyph glyph-name="seven" unicode="7" horiz-adv-x="1167" 
d="M215 0l651 1266v16h-745v161h925v-167l-642 -1276h-189z" />
    <glyph glyph-name="eight" unicode="8" horiz-adv-x="1308" 
d="M654 -34c-306 0 -520 173 -520 420c0 188 119 334 300 368v16c-147 40 -241 165 -241 322c0 225 191 385 461 385s461 -160 461 -385c0 -158 -92 -281 -241 -322v-16c181 -34 300 -180 300 -368c0 -247 -214 -420 -520 -420zM654 120c200 0 338 114 338 279
s-138 279 -338 279s-338 -114 -338 -279s138 -279 338 -279zM654 830c170 0 284 98 284 245c0 149 -113 248 -284 248s-284 -99 -284 -248c0 -147 114 -245 284 -245z" />
    <glyph glyph-name="nine" unicode="9" horiz-adv-x="1305" 
d="M622 -33c-245 0 -427 145 -473 377h185c39 -135 148 -217 290 -217c235 0 368 208 378 592h-8h-4h-4c-71 -140 -212 -222 -384 -222c-275 0 -474 203 -474 483c0 290 210 497 506 497c216 0 383 -115 473 -328c47 -110 70 -243 70 -402c0 -496 -202 -780 -555 -780z
M634 653c191 0 328 136 328 327c0 193 -141 339 -326 339s-326 -144 -326 -333c0 -197 133 -333 324 -333z" />
    <glyph glyph-name="colon" unicode=":" horiz-adv-x="608" 
d="M304 -10c-71 0 -130 59 -130 130c0 72 59 130 130 130c72 0 130 -58 130 -130c0 -71 -58 -130 -130 -130zM304 759c-71 0 -130 59 -130 130c0 72 59 130 130 130c72 0 130 -58 130 -130c0 -71 -58 -130 -130 -130z" />
    <glyph glyph-name="semicolon" unicode=";" horiz-adv-x="608" 
d="M260 -367h-150l96 569h202zM304 759c-71 0 -130 59 -130 130c0 72 59 130 130 130c72 0 130 -58 130 -130c0 -71 -58 -130 -130 -130z" />
    <glyph glyph-name="less" unicode="&#x3c;" horiz-adv-x="1328" 
d="M1104 203v-186l-880 509v142l880 509v-186l-708 -386v-16z" />
    <glyph glyph-name="equal" unicode="=" horiz-adv-x="1328" 
d="M1168 312h-1008v149h1008v-149zM1168 700h-1008v149h1008v-149z" />
    <glyph glyph-name="greater" unicode="&#x3e;" horiz-adv-x="1328" 
d="M224 203l708 386v16l-708 386v186l880 -509v-142l-880 -509v186z" />
    <glyph glyph-name="question" unicode="?" horiz-adv-x="1050" 
d="M80 1066c11 216 155 388 436 388c252 0 424 -156 424 -362c0 -157 -81 -268 -209 -345c-127 -75 -163 -131 -163 -236v-65h-175v92c-1 132 63 222 200 304c116 71 161 134 161 241c0 124 -96 215 -245 215c-151 0 -247 -89 -258 -232h-171zM494 -18
c-81 0 -139 58 -139 139c0 82 58 140 139 140s138 -58 138 -140c0 -81 -57 -139 -138 -139z" />
    <glyph glyph-name="at" unicode="@" horiz-adv-x="1880" 
d="M934 875c-134 0 -213 -104 -213 -279c0 -174 80 -280 211 -280c137 0 225 109 225 280s-87 279 -223 279zM969 1435c473 0 802 -302 802 -736c0 -326 -146 -533 -376 -533c-117 0 -208 70 -220 168h-16c-43 -102 -133 -159 -250 -159c-208 0 -348 171 -348 425
c0 243 143 413 348 413c105 0 195 -54 234 -141h16v122h151v-587c0 -70 41 -111 113 -111c126 0 207 159 207 405c0 361 -274 608 -674 608c-391 0 -672 -298 -672 -714c0 -427 276 -702 704 -702c137 0 272 19 335 48v-126c-90 -31 -211 -49 -337 -49
c-516 0 -843 324 -843 835c0 495 336 834 826 834z" />
    <glyph glyph-name="A" unicode="A" horiz-adv-x="1380" 
d="M1122 0l-145 413h-574l-145 -413h-189l532 1443h178l532 -1443h-189zM682 1210l-226 -644h468l-226 644h-16z" />
    <glyph glyph-name="B" unicode="B" horiz-adv-x="1346" 
d="M747 0h-563v1443h552c265 0 427 -139 427 -360c0 -150 -110 -286 -249 -311v-16c197 -25 322 -160 322 -351c0 -254 -182 -405 -489 -405zM364 1284v-463h288c218 0 329 78 329 231c0 147 -104 232 -283 232h-334zM364 159h356c217 0 331 88 331 255s-118 252 -348 252
h-339v-507z" />
    <glyph glyph-name="C" unicode="C" horiz-adv-x="1466" 
d="M765 -34c-392 0 -637 290 -637 755c0 466 244 756 636 756c304 0 541 -191 584 -469h-183c-48 186 -202 303 -401 303c-277 0 -451 -228 -451 -590s174 -589 452 -589c201 0 354 103 400 270h183c-48 -265 -276 -436 -583 -436z" />
    <glyph glyph-name="D" unicode="D" horiz-adv-x="1487" 
d="M184 1443h495c428 0 681 -267 681 -721c0 -455 -252 -722 -681 -722h-495v1443zM364 1281v-1119h303c322 0 509 206 509 558c0 353 -189 561 -509 561h-303z" />
    <glyph glyph-name="E" unicode="E" horiz-adv-x="1220" 
d="M1078 162v-162h-894v1443h894v-162h-714v-463h677v-160h-677v-496h714z" />
    <glyph glyph-name="F" unicode="F" horiz-adv-x="1172" 
d="M364 0h-180v1443h876v-162h-696v-496h639v-160h-639v-625z" />
    <glyph glyph-name="G" unicode="G" horiz-adv-x="1529" 
d="M1395 558c0 -356 -244 -592 -613 -592c-399 0 -654 294 -654 756c0 456 259 755 654 755c320 0 552 -178 604 -464h-183c-62 195 -207 298 -421 298c-286 0 -469 -230 -469 -589c0 -364 180 -590 470 -590c258 0 433 165 433 409v35h-406v158h585v-176z" />
    <glyph glyph-name="H" unicode="H" horiz-adv-x="1520" 
d="M1336 0h-180v657h-792v-657h-180v1443h180v-624h792v624h180v-1443z" />
    <glyph glyph-name="I" unicode="I" horiz-adv-x="548" 
d="M364 0h-180v1443h180v-1443z" />
    <glyph glyph-name="J" unicode="J" horiz-adv-x="1102" 
d="M86 337h179c4 -121 96 -205 232 -205c154 0 241 94 241 271v1040h180v-1041c0 -275 -159 -436 -420 -436c-242 0 -412 150 -412 371z" />
    <glyph glyph-name="K" unicode="K" horiz-adv-x="1349" 
d="M364 0h-180v1443h180v-701h16l632 701h226l-577 -623l630 -820h-233l-521 695l-173 -191v-504z" />
    <glyph glyph-name="L" unicode="L" horiz-adv-x="1163" 
d="M1060 162v-162h-876v1443h180v-1281h696z" />
    <glyph glyph-name="M" unicode="M" horiz-adv-x="1790" 
d="M352 0h-168v1443h209l494 -1194h16l494 1194h209v-1443h-168v1102h-12l-455 -1092h-152l-455 1092h-12v-1102z" />
    <glyph glyph-name="N" unicode="N" horiz-adv-x="1520" 
d="M362 0h-178v1443h175l783 -1123h16v1123h178v-1443h-175l-783 1119h-16v-1119z" />
    <glyph glyph-name="O" unicode="O" horiz-adv-x="1579" 
d="M791 1477c410 0 660 -292 660 -755c0 -461 -248 -756 -660 -756c-414 0 -663 294 -663 756c0 464 255 755 663 755zM791 1311c-294 0 -478 -228 -478 -589c0 -358 178 -590 478 -590c296 0 475 232 475 590c0 361 -180 589 -475 589z" />
    <glyph glyph-name="P" unicode="P" horiz-adv-x="1301" 
d="M184 1443h545c273 0 462 -192 462 -467c0 -270 -193 -461 -464 -461h-363v-515h-180v1443zM364 1283v-608h318c205 0 324 110 324 301c0 198 -115 307 -324 307h-318z" />
    <glyph glyph-name="Q" unicode="Q" horiz-adv-x="1579" 
d="M1378 -163h-202l-127 173c-77 -29 -165 -44 -258 -44c-411 0 -663 287 -663 755c0 466 255 756 663 756c406 0 660 -291 660 -756c0 -287 -92 -512 -256 -630zM792 132c53 0 104 7 154 22l-191 259h204l131 -174c113 90 176 262 176 482c0 362 -183 590 -475 590
c-294 0 -478 -227 -478 -590c0 -364 183 -589 479 -589z" />
    <glyph glyph-name="R" unicode="R" horiz-adv-x="1338" 
d="M364 1283v-552h355c185 0 290 99 290 276c0 173 -112 276 -298 276h-347zM364 571v-571h-180v1443h551c278 0 460 -170 460 -430c0 -201 -109 -357 -290 -414l334 -599h-211l-309 571h-355z" />
    <glyph glyph-name="S" unicode="S" horiz-adv-x="1305" 
d="M115 377h182c22 -151 166 -247 371 -247c194 0 337 105 337 248c0 123 -90 201 -289 251l-185 48c-261 66 -374 184 -374 389c0 245 205 411 510 411c279 0 487 -166 502 -399h-181c-25 148 -147 236 -327 236c-192 0 -319 -96 -319 -242c0 -113 79 -178 278 -229
l151 -40c299 -75 419 -191 419 -403c0 -265 -209 -434 -539 -434c-306 0 -517 162 -536 411z" />
    <glyph glyph-name="T" unicode="T" horiz-adv-x="1298" 
d="M739 0h-180v1281h-465v162h1110v-162h-465v-1281z" />
    <glyph glyph-name="U" unicode="U" horiz-adv-x="1524" 
d="M369 1443v-935c0 -218 143 -376 393 -376s393 158 393 376v935h180v-947c0 -308 -215 -530 -573 -530s-573 222 -573 530v947h180z" />
    <glyph glyph-name="V" unicode="V" horiz-adv-x="1380" 
d="M779 0h-178l-532 1443h189l424 -1210h16l424 1210h189z" />
    <glyph glyph-name="W" unicode="W" horiz-adv-x="1982" 
d="M985 1139l-332 -1139h-170l-393 1443h188l287 -1173h12l323 1173h182l323 -1173h12l287 1173h188l-393 -1443h-170l-332 1139h-12z" />
    <glyph glyph-name="X" unicode="X" horiz-adv-x="1390" 
d="M90 0l494 726l-488 717h217l380 -574h16l386 574h205l-500 -725l489 -718h-216l-378 569h-16l-385 -569h-204z" />
    <glyph glyph-name="Y" unicode="Y" horiz-adv-x="1344" 
d="M762 0h-180v621l-512 822h205l389 -641h16l389 641h205l-512 -822v-621z" />
    <glyph glyph-name="Z" unicode="Z" horiz-adv-x="1355" 
d="M144 0v128l817 1137v16h-789v162h1022v-128l-813 -1137v-16h830v-162h-1067z" />
    <glyph glyph-name="bracketleft" unicode="[" horiz-adv-x="757" 
d="M179 1444h452v-136h-284v-1413h296v-135h-464v1684z" />
    <glyph glyph-name="backslash" unicode="\" horiz-adv-x="712" 
d="M502 -325l-442 1768h152l440 -1768h-150z" />
    <glyph glyph-name="bracketright" unicode="]" horiz-adv-x="757" 
d="M578 1444v-1684h-464v135h297v1413h-284v136h451z" />
    <glyph glyph-name="asciicircum" unicode="^" horiz-adv-x="984" 
d="M484 1304l-220 -534h-163l296 673h190l296 -673h-163l-220 534h-16z" />
    <glyph glyph-name="underscore" unicode="_" horiz-adv-x="916" 
d="M926 -235h-936v128h936v-128z" />
    <glyph glyph-name="grave" unicode="`" horiz-adv-x="1093" 
d="M782 1263h-194l-278 338h220z" />
    <glyph glyph-name="a" unicode="a" horiz-adv-x="1130" 
d="M494 132c177 0 308 116 308 270v99l-290 -19c-164 -11 -236 -68 -236 -176c0 -110 93 -174 218 -174zM462 -19c-209 0 -364 124 -364 321c0 193 142 304 393 319l311 19v98c0 133 -83 206 -244 206c-129 0 -219 -49 -243 -134h-174c23 173 193 287 423 287
c263 0 410 -135 410 -359v-738h-164v159h-16c-70 -115 -188 -178 -332 -178z" />
    <glyph glyph-name="b" unicode="b" horiz-adv-x="1258" 
d="M698 -19c-150 0 -278 71 -346 191h-16v-172h-164v1506h172v-598h16c59 116 190 189 338 189c274 0 452 -219 452 -558c0 -337 -179 -558 -452 -558zM658 942c-196 0 -318 -154 -318 -403s122 -403 318 -403c197 0 314 151 314 403s-117 403 -314 403z" />
    <glyph glyph-name="c" unicode="c" horiz-adv-x="1146" 
d="M1054 748h-174c-28 107 -123 194 -278 194c-194 0 -316 -155 -316 -399c0 -249 124 -407 316 -407c145 0 246 67 278 189h174c-31 -198 -192 -344 -451 -344c-302 0 -495 219 -495 562c0 336 192 554 494 554c262 0 422 -157 452 -349z" />
    <glyph glyph-name="d" unicode="d" horiz-adv-x="1258" 
d="M561 -19c-276 0 -453 219 -453 558c0 338 179 558 453 558c150 0 277 -71 338 -189h15v598h172v-1506h-164v172h-16c-68 -120 -196 -191 -345 -191zM601 942c-196 0 -315 -152 -315 -403c0 -252 118 -403 315 -403c196 0 317 154 317 403c0 247 -122 403 -317 403z" />
    <glyph glyph-name="e" unicode="e" horiz-adv-x="1170" 
d="M592 945c-172 0 -292 -126 -305 -317h594c-4 191 -118 317 -289 317zM876 279h172c-52 -185 -218 -298 -454 -298c-299 0 -486 216 -486 557c0 339 190 559 486 559c291 0 468 -207 468 -542v-66h-775v-8c9 -213 128 -348 311 -348c139 0 233 51 278 146z" />
    <glyph glyph-name="f" unicode="f" horiz-adv-x="741" 
d="M234 0v934h-181v144h181v105c0 221 115 313 323 313c34 0 64 -3 106 -10v-144c-23 5 -62 9 -96 9c-103 0 -161 -52 -161 -173v-100h247v-144h-247v-934h-172z" />
    <glyph glyph-name="g" unicode="g" horiz-adv-x="1248" 
d="M918 555c0 235 -121 387 -320 387c-200 0 -312 -152 -312 -387s112 -387 312 -387s320 152 320 387zM606 -414c-260 0 -426 117 -452 295h182c19 -88 115 -145 270 -145c193 0 308 95 308 254v212h-16c-68 -119 -190 -186 -338 -186c-279 0 -452 216 -452 539
s175 542 452 542c151 0 284 -74 346 -190h16v171h164v-1097c0 -241 -186 -395 -480 -395z" />
    <glyph glyph-name="h" unicode="h" horiz-adv-x="1236" 
d="M172 0v1506h172v-598h16c54 119 177 189 342 189c245 0 382 -146 382 -399v-698h-172v656c0 191 -84 286 -259 286c-193 0 -309 -122 -309 -304v-638h-172z" />
    <glyph glyph-name="i" unicode="i" horiz-adv-x="504" 
d="M166 0v1078h172v-1078h-172zM252 1297c-66 0 -120 54 -120 120s54 120 120 120s120 -54 120 -120s-54 -120 -120 -120z" />
    <glyph glyph-name="j" unicode="j" horiz-adv-x="504" 
d="M338 1078v-1159c0 -222 -104 -317 -330 -317h-30v147h26c122 0 162 48 162 167v1162h172zM252 1297c-66 0 -120 54 -120 120s54 120 120 120s120 -54 120 -120s-54 -120 -120 -120z" />
    <glyph glyph-name="k" unicode="k" horiz-adv-x="1112" 
d="M360 607l468 471h211l-464 -462l495 -616h-219l-404 505l-103 -96v-409h-172v1506h172v-899h16z" />
    <glyph glyph-name="l" unicode="l" horiz-adv-x="516" 
d="M172 0v1506h172v-1506h-172z" />
    <glyph glyph-name="m" unicode="m" horiz-adv-x="1782" 
d="M162 0v1078h164v-170h16c49 120 157 189 301 189c146 0 248 -77 298 -189h16c58 114 181 189 330 189c220 0 343 -126 343 -352v-745h-172v705c0 159 -75 237 -227 237c-150 0 -250 -112 -250 -249v-693h-172v732c0 128 -89 210 -225 210c-141 0 -250 -122 -250 -274
v-668h-172z" />
    <glyph glyph-name="n" unicode="n" horiz-adv-x="1215" 
d="M162 0v1078h164v-170h16c54 119 179 189 344 189c242 0 377 -143 377 -399v-698h-172v656c0 194 -82 286 -254 286c-189 0 -303 -115 -303 -304v-638h-172z" />
    <glyph glyph-name="o" unicode="o" horiz-adv-x="1210" 
d="M605 136c204 0 319 148 319 403c0 256 -115 403 -319 403s-319 -147 -319 -403c0 -255 115 -403 319 -403zM605 -19c-307 0 -497 212 -497 558c0 347 190 558 497 558s497 -211 497 -558c0 -346 -190 -558 -497 -558z" />
    <glyph glyph-name="p" unicode="p" horiz-adv-x="1248" 
d="M687 1097c275 0 453 -219 453 -558c0 -337 -179 -558 -453 -558c-154 0 -278 67 -337 181h-16v-522h-172v1438h164v-180h16c69 124 198 199 345 199zM646 136c198 0 316 151 316 403s-118 403 -315 403c-195 0 -318 -155 -318 -403c0 -247 123 -403 317 -403z" />
    <glyph glyph-name="q" unicode="q" horiz-adv-x="1248" 
d="M559 1097c147 0 281 -78 345 -199h16v180h166v-1438h-174v522h-16c-69 -118 -185 -181 -337 -181c-275 0 -451 218 -451 558c0 338 178 558 451 558zM598 136c197 0 319 155 319 403c0 247 -123 403 -318 403c-196 0 -313 -151 -313 -403c0 -253 116 -403 312 -403z" />
    <glyph glyph-name="r" unicode="r" horiz-adv-x="765" 
d="M162 0v1078h164v-160h16c32 105 156 179 299 179c28 0 64 -2 86 -5v-172c-14 4 -76 10 -110 10c-164 0 -283 -110 -283 -262v-668h-172z" />
    <glyph glyph-name="s" unicode="s" horiz-adv-x="1072" 
d="M137 783c0 179 173 314 402 314c226 0 383 -112 406 -289h-170c-23 86 -107 143 -237 143c-128 0 -228 -65 -228 -161c0 -74 60 -120 187 -151l166 -40c203 -49 301 -137 301 -292c0 -193 -187 -326 -432 -326c-240 0 -405 115 -424 294h177c29 -91 115 -149 253 -149
c145 0 249 69 249 168c0 74 -56 124 -171 152l-185 45c-202 49 -294 136 -294 292z" />
    <glyph glyph-name="t" unicode="t" horiz-adv-x="744" 
d="M234 1347h172v-269h250v-144h-250v-610c0 -127 48 -181 160 -181c31 0 46 1 78 4v-145c-34 -6 -65 -10 -99 -10c-222 0 -311 82 -311 288v654h-181v144h181v269z" />
    <glyph glyph-name="u" unicode="u" horiz-adv-x="1216" 
d="M1054 1078v-1078h-164v169h-16c-54 -120 -179 -188 -344 -188c-242 0 -378 144 -378 399v698h172v-656c0 -194 82 -284 254 -284c190 0 304 113 304 302v638h172z" />
    <glyph glyph-name="v" unicode="v" horiz-adv-x="1110" 
d="M68 1078h184l295 -888h16l295 888h184l-399 -1078h-176z" />
    <glyph glyph-name="w" unicode="w" horiz-adv-x="1586" 
d="M1518 1078l-302 -1078h-175l-241 834h-16l-240 -834h-174l-302 1078h174l212 -862h16l241 862h165l241 -862h16l212 862h173z" />
    <glyph glyph-name="x" unicode="x" horiz-adv-x="1076" 
d="M544 407h-16l-256 -407h-195l369 539l-373 539h205l256 -401h16l253 401h195l-366 -532l371 -546h-204z" />
    <glyph glyph-name="y" unicode="y" horiz-adv-x="1112" 
d="M254 -391c-23 0 -53 2 -77 6v147c21 -4 48 -5 72 -5c99 0 153 48 198 178l20 64l-399 1079h186l296 -887h16l295 887h183l-421 -1144c-92 -250 -178 -325 -369 -325z" />
    <glyph glyph-name="z" unicode="z" horiz-adv-x="1104" 
d="M137 0v126l622 792v16h-621v144h826v-129l-619 -789v-16h622v-144h-830z" />
    <glyph glyph-name="braceleft" unicode="{" horiz-adv-x="824" 
d="M287 606c118 -11 179 -93 179 -241v-334c0 -159 68 -224 234 -224h45v-141h-60c-259 0 -383 114 -383 353v289c0 158 -45 211 -178 211v191c133 0 178 54 178 213v255c0 233 123 344 383 344h60v-141h-45c-167 0 -234 -64 -234 -225v-296c0 -145 -61 -226 -179 -238v-16z
" />
    <glyph glyph-name="bar" unicode="|" horiz-adv-x="676" 
d="M412 -326h-148v1769h148v-1769z" />
    <glyph glyph-name="braceright" unicode="}" horiz-adv-x="824" 
d="M537 606v16c-118 12 -179 93 -179 238v296c0 161 -67 225 -234 225h-45v141h60c260 0 383 -111 383 -344v-255c0 -159 45 -213 178 -213v-191c-133 0 -178 -53 -178 -211v-289c0 -239 -124 -353 -383 -353h-60v141h45c166 0 234 65 234 224v334c0 148 61 230 179 241z
" />
    <glyph glyph-name="asciitilde" unicode="~" horiz-adv-x="1202" 
d="M557 636c-73 75 -114 101 -160 101c-86 0 -134 -61 -141 -179h-160c-1 213 115 344 305 344c85 0 159 -38 246 -125c70 -73 113 -100 158 -100c86 0 135 61 142 179h159c1 -213 -114 -344 -304 -344c-85 0 -158 37 -245 124z" />
    <glyph glyph-name="nonbreakingspace" unicode="&#xa0;" horiz-adv-x="578" 
 />
    <glyph glyph-name="exclamdown" unicode="&#xa1;" horiz-adv-x="637" 
d="M218 -342l17 964h166l17 -964h-200zM180 981c0 81 58 139 139 139s138 -58 138 -139c0 -82 -57 -140 -138 -140s-139 58 -139 140z" />
    <glyph glyph-name="cent" unicode="&#xa2;" horiz-adv-x="1328" 
d="M1167 508c-29 -188 -185 -314 -399 -339v-169h-172v171c-255 39 -435 246 -435 554c0 303 180 509 435 547v171h172v-169c208 -28 370 -157 399 -344h-174c-41 122 -154 194 -308 194c-194 0 -346 -155 -346 -399c0 -248 153 -406 346 -406c169 0 276 68 308 189h174z
" />
    <glyph glyph-name="sterling" unicode="&#xa3;" horiz-adv-x="1328" 
d="M1190 154v-154h-1062v152c177 40 308 189 308 349c0 55 -9 105 -22 152h-286v144h236c-32 83 -63 166 -63 263c0 261 194 417 517 417c116 0 194 -11 300 -43v-160c-90 30 -180 44 -291 44c-214 0 -342 -95 -342 -254c0 -102 28 -185 59 -267h472v-144h-423
c12 -45 20 -93 20 -145c0 -134 -74 -263 -194 -338v-16h771z" />
    <glyph glyph-name="currency" unicode="&#xa4;" horiz-adv-x="1328" 
d="M401 656c0 -145 119 -264 264 -264s264 119 264 264s-119 264 -264 264s-264 -119 -264 -264zM1157 1043l-168 -169c42 -62 67 -137 67 -218s-25 -157 -68 -219l169 -169l-106 -106l-169 169c-62 -42 -137 -66 -217 -66c-81 0 -156 25 -219 67l-169 -170l-106 106
l170 170c-42 63 -67 138 -67 218s25 155 67 217l-170 170l106 106l169 -169c63 42 138 67 219 67s156 -25 218 -67l168 169z" />
    <glyph glyph-name="yen" unicode="&#xa5;" horiz-adv-x="1328" 
d="M1031 269h-277v-269h-180v269h-277v136h277v166h-277v136h223l-458 736h205l389 -641h16l389 641h205l-458 -736h223v-136h-277v-166h277v-136z" />
    <glyph glyph-name="brokenbar" unicode="&#xa6;" horiz-adv-x="676" 
d="M412 774h-148v669h148v-669zM412 -326h-148v669h148v-669z" />
    <glyph glyph-name="section" unicode="&#xa7;" horiz-adv-x="1032" 
d="M451 400l83 -18c123 0 218 83 218 191c0 84 -60 143 -170 167l-83 18c-121 0 -219 -86 -219 -191c0 -82 62 -143 171 -167zM521 -257c-229 0 -396 122 -409 299h176c14 -92 111 -153 242 -153c136 0 229 64 229 158c0 75 -60 123 -198 160l-141 38
c-219 59 -317 148 -317 288c0 127 82 223 223 262v16c-146 57 -219 148 -219 273c0 186 162 313 401 313c222 0 375 -111 398 -289h-173c-14 87 -103 143 -229 143c-134 0 -224 -63 -224 -157c0 -76 58 -124 195 -161l141 -38c216 -58 313 -145 313 -280
c0 -137 -104 -253 -254 -283v-16c168 -38 254 -125 254 -257c0 -185 -169 -316 -408 -316z" />
    <glyph glyph-name="dieresis" unicode="&#xa8;" horiz-adv-x="1092" 
d="M344 1263c-67 0 -121 54 -121 121s54 121 121 121s121 -54 121 -121s-54 -121 -121 -121zM748 1263c-67 0 -121 54 -121 121s54 121 121 121s121 -54 121 -121s-54 -121 -121 -121z" />
    <glyph glyph-name="copyright" unicode="&#xa9;" horiz-adv-x="1742" 
d="M871 -168c-448 0 -793 345 -793 794c0 450 344 794 793 794c450 0 793 -343 793 -794c0 -450 -344 -794 -793 -794zM871 -28c370 0 652 283 652 654c0 372 -281 654 -652 654c-370 0 -652 -283 -652 -654c0 -370 283 -654 652 -654zM1249 768h-139
c-24 95 -111 156 -222 156c-155 0 -253 -114 -253 -296c0 -184 98 -300 253 -300c117 0 198 55 222 151h139c-25 -168 -165 -275 -360 -275c-242 0 -396 165 -396 424c0 256 154 420 395 420c191 0 335 -112 361 -280z" />
    <glyph glyph-name="ordfeminine" unicode="&#xaa;" horiz-adv-x="942" 
d="M438 652c137 0 240 94 240 217v96l-227 -17c-125 -8 -191 -59 -191 -148c0 -90 70 -148 178 -148zM390 515c-179 0 -299 112 -299 279c0 164 120 262 339 275l245 15v80c0 100 -73 157 -199 157c-100 0 -171 -42 -185 -110h-165c15 153 155 252 356 252
c223 0 355 -114 355 -305v-618h-155v119h-16c-54 -92 -154 -144 -276 -144z" />
    <glyph glyph-name="guillemotleft" unicode="&#xab;" horiz-adv-x="1391" 
d="M861 573v-16l351 -412h-205l-350 416v8l351 416h204zM382 573v-16l351 -412h-204l-350 416v8l350 416h204z" />
    <glyph glyph-name="logicalnot" unicode="&#xac;" horiz-adv-x="1328" 
d="M1138 654v-528h-148v380h-800v148h948z" />
    <glyph glyph-name="registered" unicode="&#xae;" horiz-adv-x="1260" 
d="M630 419c-291 0 -522 231 -522 522c0 292 231 522 522 522c292 0 522 -230 522 -522c0 -291 -230 -522 -522 -522zM630 523c234 0 418 185 418 418c0 234 -184 418 -418 418c-233 0 -418 -184 -418 -418c0 -233 185 -418 418 -418zM527 703h-98v499h249
c100 0 174 -65 174 -153c0 -80 -41 -132 -116 -150l138 -196h-120l-129 183h-98v-183zM527 1113v-143h124c63 0 92 23 92 74c0 46 -29 69 -89 69h-127z" />
    <glyph glyph-name="macron" unicode="&#xaf;" horiz-adv-x="1048" 
d="M861 1286h-674v136h674v-136z" />
    <glyph glyph-name="degree" unicode="&#xb0;" horiz-adv-x="901" 
d="M450 813c-188 0 -324 145 -324 325s136 325 324 325s325 -145 325 -325s-137 -325 -325 -325zM450 941c121 0 199 90 199 197c0 109 -79 197 -199 197s-197 -88 -197 -197c0 -107 76 -197 197 -197z" />
    <glyph glyph-name="plusminus" unicode="&#xb1;" horiz-adv-x="1328" 
d="M1173 112h-1018v148h1018v-148zM738 662v-291h-148v291h-435v136h435v291h148v-291h435v-136h-435z" />
    <glyph glyph-name="two.sups" unicode="&#xb2;" horiz-adv-x="825" 
d="M95 1539c0 168 129 286 314 286c180 0 308 -108 308 -260c0 -92 -42 -167 -203 -328l-185 -186v-16h401v-135h-627v110l301 310c121 122 153 171 153 236c0 80 -64 139 -153 139c-93 0 -157 -63 -157 -156v-2h-152v2z" />
    <glyph glyph-name="three.sups" unicode="&#xb3;" horiz-adv-x="853" 
d="M311 1300v122h109c92 0 155 56 155 138c0 81 -60 133 -155 133c-92 0 -154 -53 -161 -139h-151c7 165 129 269 317 269c176 0 307 -103 307 -241c0 -103 -66 -185 -166 -206v-16c123 -10 202 -95 202 -215c0 -155 -145 -270 -342 -270c-195 0 -329 108 -336 272h156
c7 -84 77 -138 181 -138c103 0 175 60 175 145c0 91 -68 146 -179 146h-112z" />
    <glyph glyph-name="acute" unicode="&#xb4;" horiz-adv-x="1093" 
d="M286 1263l252 338h220l-278 -338h-194z" />
    <glyph glyph-name="paragraph" unicode="&#xb6;" horiz-adv-x="1321" 
d="M834 -220h-180v795h-20c-268 0 -474 180 -474 427c0 257 208 441 475 441h199v-1663zM981 -220v1663h180v-1663h-180z" />
    <glyph glyph-name="periodcentered" unicode="&#xb7;" horiz-adv-x="630" 
d="M316 597c-83 0 -142 59 -142 142c0 82 59 142 142 142c82 0 140 -60 140 -142c0 -83 -58 -142 -140 -142z" />
    <glyph glyph-name="cedilla" unicode="&#xb8;" horiz-adv-x="1093" 
d="M394 -244v84l63 160h134l-55 -142c136 0 215 -60 215 -163c0 -111 -91 -189 -244 -189c-59 0 -105 6 -146 18v108c24 -7 86 -14 122 -14c77 0 119 26 119 73c0 46 -43 65 -149 65h-59z" />
    <glyph glyph-name="one.sups" unicode="&#xb9;" horiz-adv-x="664" 
d="M477 900h-156v742h-16c-20 -13 -217 -155 -220 -158v152c48 36 154 111 236 167h156v-903z" />
    <glyph glyph-name="ordmasculine" unicode="&#xba;" horiz-adv-x="1024" 
d="M512 659c159 0 251 120 251 330c0 211 -91 330 -251 330c-159 0 -250 -120 -250 -330s91 -330 250 -330zM512 515c-263 0 -424 180 -424 474c0 293 162 474 424 474c263 0 424 -180 424 -474s-161 -474 -424 -474z" />
    <glyph glyph-name="guillemotright" unicode="&#xbb;" horiz-adv-x="1391" 
d="M530 573l-351 412h204l351 -416v-8l-350 -416h-205l351 412v16zM1009 573l-351 412h204l350 -416v-8l-350 -416h-204l351 412v16z" />
    <glyph glyph-name="onequarter" unicode="&#xbc;" horiz-adv-x="1944" 
d="M477 540h-156v742h-16c-20 -13 -217 -155 -220 -158v152c48 36 154 111 236 167h156v-903zM504 0l335 758l302 685h167l-318 -721l-319 -722h-167zM1513 903h230v-600h121v-133h-121v-170h-156v170h-452v141c62 113 140 235 378 592zM1285 307v-8h304v477h-6
c-139 -205 -228 -344 -298 -469z" />
    <glyph glyph-name="onehalf" unicode="&#xbd;" horiz-adv-x="1949" 
d="M1219 639c0 168 129 286 314 286c180 0 308 -108 308 -260c0 -92 -42 -167 -203 -328l-185 -186v-16h401v-135h-627v110l301 310c121 122 153 171 153 236c0 80 -64 139 -153 139c-93 0 -157 -63 -157 -156v-2h-152v2zM477 540h-156v742h-16c-20 -13 -217 -155 -220 -158
v152c48 36 154 111 236 167h156v-903zM504 0l335 758l302 685h167l-318 -721l-319 -722h-167z" />
    <glyph glyph-name="threequarters" unicode="&#xbe;" horiz-adv-x="2134" 
d="M694 0l335 758l302 685h167l-318 -721l-319 -722h-167zM1703 903h230v-600h121v-133h-121v-170h-156v170h-452v141c62 113 140 235 378 592zM1475 307v-8h304v477h-6c-139 -205 -228 -344 -298 -469zM311 940v122h109c92 0 155 56 155 138c0 81 -60 133 -155 133
c-92 0 -154 -53 -161 -139h-151c7 165 129 269 317 269c176 0 307 -103 307 -241c0 -103 -66 -185 -166 -206v-16c123 -10 202 -95 202 -215c0 -155 -145 -270 -342 -270c-195 0 -329 108 -336 272h156c7 -84 77 -138 181 -138c103 0 175 60 175 145c0 91 -68 146 -179 146
h-112z" />
    <glyph glyph-name="questiondown" unicode="&#xbf;" horiz-adv-x="1050" 
d="M970 35c-10 -217 -156 -389 -435 -389c-253 0 -425 156 -425 364c0 155 82 266 209 343c127 76 162 131 162 236v65h175v-92c2 -132 -61 -221 -199 -304c-115 -71 -161 -134 -161 -239c0 -126 96 -217 246 -217s246 89 257 233h171zM557 840c-81 0 -139 58 -139 139
c0 80 58 140 139 140s138 -60 138 -140c0 -81 -57 -139 -138 -139z" />
    <glyph glyph-name="Agrave" unicode="&#xc0;" horiz-adv-x="1380" 
d="M1122 0l-145 413h-574l-145 -413h-189l532 1443h178l532 -1443h-189zM682 1210l-226 -644h468l-226 644h-16zM478 1873l310 -298h-204l-332 298h226z" />
    <glyph glyph-name="Aacute" unicode="&#xc1;" horiz-adv-x="1380" 
d="M1122 0l-145 413h-574l-145 -413h-189l532 1443h178l532 -1443h-189zM682 1210l-226 -644h468l-226 644h-16zM584 1575l310 298h226l-332 -298h-204z" />
    <glyph glyph-name="Acircumflex" unicode="&#xc2;" horiz-adv-x="1380" 
d="M1122 0l-145 413h-574l-145 -413h-189l532 1443h178l532 -1443h-189zM682 1210l-226 -644h468l-226 644h-16zM772 1873l300 -298h-202l-172 177h-16l-172 -177h-202l300 298h164z" />
    <glyph glyph-name="Atilde" unicode="&#xc3;" horiz-adv-x="1380" 
d="M1122 0l-145 413h-574l-145 -413h-189l532 1443h178l532 -1443h-189zM682 1210l-226 -644h468l-226 644h-16zM840 1575c-162 0 -192 168 -296 168c-57 0 -90 -38 -94 -151h-136c0 179 88 281 226 281c173 0 211 -168 296 -168c48 0 89 33 95 151h135
c0 -171 -88 -281 -226 -281z" />
    <glyph glyph-name="Adieresis" unicode="&#xc4;" horiz-adv-x="1380" 
d="M1122 0l-145 413h-574l-145 -413h-189l532 1443h178l532 -1443h-189zM682 1210l-226 -644h468l-226 644h-16zM488 1575c-67 0 -121 54 -121 121s54 121 121 121s121 -54 121 -121s-54 -121 -121 -121zM892 1575c-67 0 -121 54 -121 121s54 121 121 121s121 -54 121 -121
s-54 -121 -121 -121z" />
    <glyph glyph-name="Aring" unicode="&#xc5;" horiz-adv-x="1380" 
d="M1122 0l-145 413h-574l-145 -413h-189l532 1443h178l532 -1443h-189zM682 1210l-226 -644h468l-226 644h-16zM690 1571c-128 0 -232 100 -232 229s104 229 232 229s232 -100 232 -229s-104 -229 -232 -229zM690 1677c70 0 122 53 122 123s-52 123 -122 123
s-122 -53 -122 -123s52 -123 122 -123z" />
    <glyph glyph-name="AE" unicode="&#xc6;" horiz-adv-x="1966" 
d="M986 1292h-147l-310 -680h457v680zM986 0v459h-527l-209 -459h-181l651 1443h1104v-162h-658v-473h621v-160h-621v-486h658v-162h-838z" />
    <glyph glyph-name="Ccedilla" unicode="&#xc7;" horiz-adv-x="1466" 
d="M1348 1008h-183c-48 186 -202 303 -401 303c-277 0 -451 -228 -451 -590s174 -589 452 -589c201 0 354 103 400 270h183c-44 -244 -241 -408 -512 -433l-43 -111c136 0 215 -60 215 -163c0 -111 -91 -189 -244 -189c-59 0 -105 6 -146 18v108c24 -7 86 -14 122 -14
c77 0 119 26 119 73c0 46 -43 65 -149 65h-59v84l51 129c-355 29 -574 313 -574 752c0 466 244 756 636 756c304 0 541 -191 584 -469z" />
    <glyph glyph-name="Egrave" unicode="&#xc8;" horiz-adv-x="1220" 
d="M1078 162v-162h-894v1443h894v-162h-714v-463h677v-160h-677v-496h714zM419 1873l310 -298h-204l-332 298h226z" />
    <glyph glyph-name="Eacute" unicode="&#xc9;" horiz-adv-x="1220" 
d="M1078 162v-162h-894v1443h894v-162h-714v-463h677v-160h-677v-496h714zM525 1575l310 298h226l-332 -298h-204z" />
    <glyph glyph-name="Ecircumflex" unicode="&#xca;" horiz-adv-x="1220" 
d="M1078 162v-162h-894v1443h894v-162h-714v-463h677v-160h-677v-496h714zM713 1873l300 -298h-202l-172 177h-16l-172 -177h-202l300 298h164z" />
    <glyph glyph-name="Edieresis" unicode="&#xcb;" horiz-adv-x="1220" 
d="M1078 162v-162h-894v1443h894v-162h-714v-463h677v-160h-677v-496h714zM429 1575c-67 0 -121 54 -121 121s54 121 121 121s121 -54 121 -121s-54 -121 -121 -121zM833 1575c-67 0 -121 54 -121 121s54 121 121 121s121 -54 121 -121s-54 -121 -121 -121z" />
    <glyph glyph-name="Igrave" unicode="&#xcc;" horiz-adv-x="548" 
d="M364 0h-180v1443h180v-1443zM62 1873l310 -298h-204l-332 298h226z" />
    <glyph glyph-name="Iacute" unicode="&#xcd;" horiz-adv-x="548" 
d="M364 0h-180v1443h180v-1443zM168 1575l310 298h226l-332 -298h-204z" />
    <glyph glyph-name="Icircumflex" unicode="&#xce;" horiz-adv-x="548" 
d="M364 0h-180v1443h180v-1443zM356 1873l300 -298h-202l-172 177h-16l-172 -177h-202l300 298h164z" />
    <glyph glyph-name="Idieresis" unicode="&#xcf;" horiz-adv-x="548" 
d="M364 0h-180v1443h180v-1443zM72 1575c-67 0 -121 54 -121 121s54 121 121 121s121 -54 121 -121s-54 -121 -121 -121zM476 1575c-67 0 -121 54 -121 121s54 121 121 121s121 -54 121 -121s-54 -121 -121 -121z" />
    <glyph glyph-name="Eth" unicode="&#xd0;" horiz-adv-x="1452" 
d="M364 162h303c322 0 509 206 509 558c0 353 -189 561 -509 561h-303v-455h233v-163h-233v-501zM184 1443h495c428 0 681 -267 681 -721c0 -455 -252 -722 -681 -722h-495v663h-173v163h173v617z" />
    <glyph glyph-name="Ntilde" unicode="&#xd1;" horiz-adv-x="1520" 
d="M362 0h-178v1443h175l783 -1123h16v1123h178v-1443h-175l-783 1119h-16v-1119zM910 1575c-162 0 -192 168 -296 168c-57 0 -90 -38 -94 -151h-136c0 179 88 281 226 281c173 0 211 -168 296 -168c48 0 89 33 95 151h135c0 -171 -88 -281 -226 -281z" />
    <glyph glyph-name="Ograve" unicode="&#xd2;" horiz-adv-x="1579" 
d="M791 1477c410 0 660 -292 660 -755c0 -461 -248 -756 -660 -756c-414 0 -663 294 -663 756c0 464 255 755 663 755zM791 1311c-294 0 -478 -228 -478 -589c0 -358 178 -590 478 -590c296 0 475 232 475 590c0 361 -180 589 -475 589zM579 1873l310 -298h-204l-332 298
h226z" />
    <glyph glyph-name="Oacute" unicode="&#xd3;" horiz-adv-x="1579" 
d="M791 1477c410 0 660 -292 660 -755c0 -461 -248 -756 -660 -756c-414 0 -663 294 -663 756c0 464 255 755 663 755zM791 1311c-294 0 -478 -228 -478 -589c0 -358 178 -590 478 -590c296 0 475 232 475 590c0 361 -180 589 -475 589zM685 1575l310 298h226l-332 -298
h-204z" />
    <glyph glyph-name="Ocircumflex" unicode="&#xd4;" horiz-adv-x="1579" 
d="M791 1477c410 0 660 -292 660 -755c0 -461 -248 -756 -660 -756c-414 0 -663 294 -663 756c0 464 255 755 663 755zM791 1311c-294 0 -478 -228 -478 -589c0 -358 178 -590 478 -590c296 0 475 232 475 590c0 361 -180 589 -475 589zM873 1873l300 -298h-202l-172 177
h-16l-172 -177h-202l300 298h164z" />
    <glyph glyph-name="Otilde" unicode="&#xd5;" horiz-adv-x="1579" 
d="M791 1477c410 0 660 -292 660 -755c0 -461 -248 -756 -660 -756c-414 0 -663 294 -663 756c0 464 255 755 663 755zM791 1311c-294 0 -478 -228 -478 -589c0 -358 178 -590 478 -590c296 0 475 232 475 590c0 361 -180 589 -475 589zM941 1575c-162 0 -192 168 -296 168
c-57 0 -90 -38 -94 -151h-136c0 179 88 281 226 281c173 0 211 -168 296 -168c48 0 89 33 95 151h135c0 -171 -88 -281 -226 -281z" />
    <glyph glyph-name="Odieresis" unicode="&#xd6;" horiz-adv-x="1579" 
d="M791 1477c410 0 660 -292 660 -755c0 -461 -248 -756 -660 -756c-414 0 -663 294 -663 756c0 464 255 755 663 755zM791 1311c-294 0 -478 -228 -478 -589c0 -358 178 -590 478 -590c296 0 475 232 475 590c0 361 -180 589 -475 589zM589 1575c-67 0 -121 54 -121 121
s54 121 121 121s121 -54 121 -121s-54 -121 -121 -121zM993 1575c-67 0 -121 54 -121 121s54 121 121 121s121 -54 121 -121s-54 -121 -121 -121z" />
    <glyph glyph-name="multiply" unicode="&#xd7;" horiz-adv-x="1328" 
d="M664 475l-308 -307l-104 104l307 308l-307 308l104 104l308 -307l308 307l104 -104l-307 -308l307 -308l-104 -104z" />
    <glyph glyph-name="Oslash" unicode="&#xd8;" horiz-adv-x="1551" 
d="M1158 1127l-675 -881c78 -73 183 -114 308 -114c296 0 475 232 475 590c0 166 -38 304 -108 405zM403 346l672 871c-76 61 -172 94 -284 94c-294 0 -478 -228 -478 -589c0 -150 31 -278 90 -376zM1382 1419l-110 -143c116 -131 179 -321 179 -554
c0 -461 -248 -756 -660 -756c-168 0 -309 49 -418 137l-115 -150l-100 76l127 165c-102 130 -157 310 -157 528c0 464 255 755 663 755c155 0 288 -42 392 -119l101 130z" />
    <glyph glyph-name="Ugrave" unicode="&#xd9;" horiz-adv-x="1524" 
d="M369 1443v-935c0 -218 143 -376 393 -376s393 158 393 376v935h180v-947c0 -308 -215 -530 -573 -530s-573 222 -573 530v947h180zM550 1873l310 -298h-204l-332 298h226z" />
    <glyph glyph-name="Uacute" unicode="&#xda;" horiz-adv-x="1524" 
d="M369 1443v-935c0 -218 143 -376 393 -376s393 158 393 376v935h180v-947c0 -308 -215 -530 -573 -530s-573 222 -573 530v947h180zM656 1575l310 298h226l-332 -298h-204z" />
    <glyph glyph-name="Ucircumflex" unicode="&#xdb;" horiz-adv-x="1524" 
d="M369 1443v-935c0 -218 143 -376 393 -376s393 158 393 376v935h180v-947c0 -308 -215 -530 -573 -530s-573 222 -573 530v947h180zM844 1873l300 -298h-202l-172 177h-16l-172 -177h-202l300 298h164z" />
    <glyph glyph-name="Udieresis" unicode="&#xdc;" horiz-adv-x="1524" 
d="M369 1443v-935c0 -218 143 -376 393 -376s393 158 393 376v935h180v-947c0 -308 -215 -530 -573 -530s-573 222 -573 530v947h180zM560 1575c-67 0 -121 54 -121 121s54 121 121 121s121 -54 121 -121s-54 -121 -121 -121zM964 1575c-67 0 -121 54 -121 121
s54 121 121 121s121 -54 121 -121s-54 -121 -121 -121z" />
    <glyph glyph-name="Yacute" unicode="&#xdd;" horiz-adv-x="1344" 
d="M762 0h-180v621l-512 822h205l389 -641h16l389 641h205l-512 -822v-621zM566 1575l310 298h226l-332 -298h-204z" />
    <glyph glyph-name="Thorn" unicode="&#xde;" horiz-adv-x="1280" 
d="M184 1443h180v-266h373c220 0 422 -151 422 -415s-204 -417 -424 -417h-371v-345h-180v1443zM364 1017v-512h322c166 0 288 85 288 257s-122 255 -288 255h-322z" />
    <glyph glyph-name="germandbls" unicode="&#xdf;" horiz-adv-x="1274" 
d="M396 0h-171v1101c0 245 171 395 419 395c244 0 415 -155 415 -375c0 -165 -100 -294 -229 -334v-18c202 -20 336 -143 336 -362c0 -238 -181 -421 -455 -421c-57 0 -102 4 -144 13v153c35 -8 85 -14 132 -14c190 0 296 113 296 271c0 165 -123 269 -340 269h-61v170h51
c148 0 245 92 245 264c0 129 -91 232 -243 232c-156 0 -251 -96 -251 -260v-1084z" />
    <glyph glyph-name="agrave" unicode="&#xe0;" horiz-adv-x="1130" 
d="M494 132c177 0 308 116 308 270v99l-290 -19c-164 -11 -236 -68 -236 -176c0 -110 93 -174 218 -174zM462 -19c-209 0 -364 124 -364 321c0 193 142 304 393 319l311 19v98c0 133 -83 206 -244 206c-129 0 -219 -49 -243 -134h-174c23 173 193 287 423 287
c263 0 410 -135 410 -359v-738h-164v159h-16c-70 -115 -188 -178 -332 -178zM686 1263h-194l-278 338h220z" />
    <glyph glyph-name="aacute" unicode="&#xe1;" horiz-adv-x="1130" 
d="M494 132c177 0 308 116 308 270v99l-290 -19c-164 -11 -236 -68 -236 -176c0 -110 93 -174 218 -174zM462 -19c-209 0 -364 124 -364 321c0 193 142 304 393 319l311 19v98c0 133 -83 206 -244 206c-129 0 -219 -49 -243 -134h-174c23 173 193 287 423 287
c263 0 410 -135 410 -359v-738h-164v159h-16c-70 -115 -188 -178 -332 -178zM450 1263l252 338h220l-278 -338h-194z" />
    <glyph glyph-name="acircumflex" unicode="&#xe2;" horiz-adv-x="1130" 
d="M494 132c177 0 308 116 308 270v99l-290 -19c-164 -11 -236 -68 -236 -176c0 -110 93 -174 218 -174zM462 -19c-209 0 -364 124 -364 321c0 193 142 304 393 319l311 19v98c0 133 -83 206 -244 206c-129 0 -219 -49 -243 -134h-174c23 173 193 287 423 287
c263 0 410 -135 410 -359v-738h-164v159h-16c-70 -115 -188 -178 -332 -178zM665 1568l282 -340h-198l-177 227h-16l-177 -227h-198l282 340h202z" />
    <glyph glyph-name="atilde" unicode="&#xe3;" horiz-adv-x="1130" 
d="M494 132c177 0 308 116 308 270v99l-290 -19c-164 -11 -236 -68 -236 -176c0 -110 93 -174 218 -174zM462 -19c-209 0 -364 124 -364 321c0 193 142 304 393 319l311 19v98c0 133 -83 206 -244 206c-129 0 -219 -49 -243 -134h-174c23 173 193 287 423 287
c263 0 410 -135 410 -359v-738h-164v159h-16c-70 -115 -188 -178 -332 -178zM426 1388c-70 0 -98 -44 -98 -157h-142c0 182 87 291 232 291c160 0 204 -157 284 -157c70 0 98 44 98 157h142c0 -182 -87 -291 -232 -291c-160 0 -204 157 -284 157z" />
    <glyph glyph-name="adieresis" unicode="&#xe4;" horiz-adv-x="1130" 
d="M494 132c177 0 308 116 308 270v99l-290 -19c-164 -11 -236 -68 -236 -176c0 -110 93 -174 218 -174zM462 -19c-209 0 -364 124 -364 321c0 193 142 304 393 319l311 19v98c0 133 -83 206 -244 206c-129 0 -219 -49 -243 -134h-174c23 173 193 287 423 287
c263 0 410 -135 410 -359v-738h-164v159h-16c-70 -115 -188 -178 -332 -178zM362 1228c-67 0 -121 54 -121 121s54 121 121 121s121 -54 121 -121s-54 -121 -121 -121zM766 1228c-67 0 -121 54 -121 121s54 121 121 121s121 -54 121 -121s-54 -121 -121 -121z" />
    <glyph glyph-name="aring" unicode="&#xe5;" horiz-adv-x="1130" 
d="M494 132c177 0 308 116 308 270v99l-290 -19c-164 -11 -236 -68 -236 -176c0 -110 93 -174 218 -174zM462 -19c-209 0 -364 124 -364 321c0 193 142 304 393 319l311 19v98c0 133 -83 206 -244 206c-129 0 -219 -49 -243 -134h-174c23 173 193 287 423 287
c263 0 410 -135 410 -359v-738h-164v159h-16c-70 -115 -188 -178 -332 -178zM564 1228c-128 0 -232 100 -232 229s104 229 232 229s232 -100 232 -229s-104 -229 -232 -229zM564 1334c70 0 122 53 122 123s-52 123 -122 123s-122 -53 -122 -123s52 -123 122 -123z" />
    <glyph glyph-name="ae" unicode="&#xe6;" horiz-adv-x="1849" 
d="M1287 -19c-173 0 -329 97 -386 231h-16c-70 -144 -214 -231 -406 -231c-226 0 -381 124 -381 321c0 193 142 304 393 319l311 19v98c0 133 -83 206 -244 206c-129 0 -219 -49 -243 -134h-174c23 173 192 287 423 287c171 0 293 -78 348 -185h16c63 106 202 185 357 185
c285 0 456 -198 456 -529v-68h-768v-18c9 -212 133 -348 318 -348c134 0 217 46 264 145h172c-54 -190 -213 -298 -440 -298zM1276 946c-174 0 -290 -118 -303 -307h587c-4 180 -122 307 -284 307zM504 132c172 0 298 124 298 278v91l-290 -19c-164 -11 -236 -68 -236 -176
c0 -110 93 -174 228 -174z" />
    <glyph glyph-name="ccedilla" unicode="&#xe7;" horiz-adv-x="1146" 
d="M1054 748h-174c-28 107 -123 194 -278 194c-194 0 -316 -155 -316 -399c0 -249 124 -407 316 -407c145 0 246 67 278 189h174c-28 -177 -160 -313 -373 -339l-49 -128c136 0 215 -60 215 -163c0 -111 -91 -189 -244 -189c-59 0 -105 6 -146 18v108c24 -7 86 -14 122 -14
c77 0 119 26 119 73c0 46 -43 65 -149 65h-59v84l57 144c-270 25 -439 238 -439 559c0 336 192 554 494 554c262 0 422 -157 452 -349z" />
    <glyph glyph-name="egrave" unicode="&#xe8;" horiz-adv-x="1170" 
d="M592 945c-172 0 -292 -126 -305 -317h594c-4 191 -118 317 -289 317zM876 279h172c-52 -185 -218 -298 -454 -298c-299 0 -486 216 -486 557c0 339 190 559 486 559c291 0 468 -207 468 -542v-66h-775v-8c9 -213 128 -348 311 -348c139 0 233 51 278 146zM716 1263h-194
l-278 338h220z" />
    <glyph glyph-name="eacute" unicode="&#xe9;" horiz-adv-x="1170" 
d="M592 945c-172 0 -292 -126 -305 -317h594c-4 191 -118 317 -289 317zM876 279h172c-52 -185 -218 -298 -454 -298c-299 0 -486 216 -486 557c0 339 190 559 486 559c291 0 468 -207 468 -542v-66h-775v-8c9 -213 128 -348 311 -348c139 0 233 51 278 146zM480 1263
l252 338h220l-278 -338h-194z" />
    <glyph glyph-name="ecircumflex" unicode="&#xea;" horiz-adv-x="1170" 
d="M592 945c-172 0 -292 -126 -305 -317h594c-4 191 -118 317 -289 317zM876 279h172c-52 -185 -218 -298 -454 -298c-299 0 -486 216 -486 557c0 339 190 559 486 559c291 0 468 -207 468 -542v-66h-775v-8c9 -213 128 -348 311 -348c139 0 233 51 278 146zM695 1568
l282 -340h-198l-177 227h-16l-177 -227h-198l282 340h202z" />
    <glyph glyph-name="edieresis" unicode="&#xeb;" horiz-adv-x="1170" 
d="M592 945c-172 0 -292 -126 -305 -317h594c-4 191 -118 317 -289 317zM876 279h172c-52 -185 -218 -298 -454 -298c-299 0 -486 216 -486 557c0 339 190 559 486 559c291 0 468 -207 468 -542v-66h-775v-8c9 -213 128 -348 311 -348c139 0 233 51 278 146zM392 1228
c-67 0 -121 54 -121 121s54 121 121 121s121 -54 121 -121s-54 -121 -121 -121zM796 1228c-67 0 -121 54 -121 121s54 121 121 121s121 -54 121 -121s-54 -121 -121 -121z" />
    <glyph glyph-name="igrave" unicode="&#xec;" horiz-adv-x="516" 
d="M172 0v1078h172v-1078h-172zM380 1263h-194l-278 338h220z" />
    <glyph glyph-name="iacute" unicode="&#xed;" horiz-adv-x="516" 
d="M172 0v1078h172v-1078h-172zM144 1263l252 338h220l-278 -338h-194z" />
    <glyph glyph-name="icircumflex" unicode="&#xee;" horiz-adv-x="516" 
d="M172 0v1078h172v-1078h-172zM359 1568l282 -340h-198l-177 227h-16l-177 -227h-198l282 340h202z" />
    <glyph glyph-name="idieresis" unicode="&#xef;" horiz-adv-x="516" 
d="M172 0v1078h172v-1078h-172zM56 1228c-67 0 -121 54 -121 121s54 121 121 121s121 -54 121 -121s-54 -121 -121 -121zM460 1228c-67 0 -121 54 -121 121s54 121 121 121s121 -54 121 -121s-54 -121 -121 -121z" />
    <glyph glyph-name="eth" unicode="&#xf0;" horiz-adv-x="1188" 
d="M601 -19c-305 0 -493 205 -493 538c0 322 182 538 453 538c135 0 271 -72 318 -169h15c-29 118 -93 242 -182 351l-278 -90l-35 112l231 75c-47 55 -106 110 -200 190h206c49 -41 98 -88 145 -141l250 81l35 -112l-209 -68c147 -199 227 -451 227 -715
c0 -364 -185 -590 -483 -590zM601 902c-192 0 -315 -150 -315 -383s123 -383 315 -383c193 0 317 150 317 383c0 231 -126 383 -317 383z" />
    <glyph glyph-name="ntilde" unicode="&#xf1;" horiz-adv-x="1215" 
d="M162 0v1078h164v-170h16c54 119 179 189 344 189c242 0 377 -143 377 -399v-698h-172v656c0 194 -82 286 -254 286c-189 0 -303 -115 -303 -304v-638h-172zM489 1388c-70 0 -98 -44 -98 -157h-142c0 182 87 291 232 291c160 0 204 -157 284 -157c70 0 98 44 98 157h142
c0 -182 -87 -291 -232 -291c-160 0 -204 157 -284 157z" />
    <glyph glyph-name="ograve" unicode="&#xf2;" horiz-adv-x="1210" 
d="M605 136c204 0 319 148 319 403c0 256 -115 403 -319 403s-319 -147 -319 -403c0 -255 115 -403 319 -403zM605 -19c-307 0 -497 212 -497 558c0 347 190 558 497 558s497 -211 497 -558c0 -346 -190 -558 -497 -558zM727 1263h-194l-278 338h220z" />
    <glyph glyph-name="oacute" unicode="&#xf3;" horiz-adv-x="1210" 
d="M605 136c204 0 319 148 319 403c0 256 -115 403 -319 403s-319 -147 -319 -403c0 -255 115 -403 319 -403zM605 -19c-307 0 -497 212 -497 558c0 347 190 558 497 558s497 -211 497 -558c0 -346 -190 -558 -497 -558zM491 1263l252 338h220l-278 -338h-194z" />
    <glyph glyph-name="ocircumflex" unicode="&#xf4;" horiz-adv-x="1210" 
d="M605 136c204 0 319 148 319 403c0 256 -115 403 -319 403s-319 -147 -319 -403c0 -255 115 -403 319 -403zM605 -19c-307 0 -497 212 -497 558c0 347 190 558 497 558s497 -211 497 -558c0 -346 -190 -558 -497 -558zM706 1568l282 -340h-198l-177 227h-16l-177 -227
h-198l282 340h202z" />
    <glyph glyph-name="otilde" unicode="&#xf5;" horiz-adv-x="1210" 
d="M605 136c204 0 319 148 319 403c0 256 -115 403 -319 403s-319 -147 -319 -403c0 -255 115 -403 319 -403zM605 -19c-307 0 -497 212 -497 558c0 347 190 558 497 558s497 -211 497 -558c0 -346 -190 -558 -497 -558zM467 1388c-70 0 -98 -44 -98 -157h-142
c0 182 87 291 232 291c160 0 204 -157 284 -157c70 0 98 44 98 157h142c0 -182 -87 -291 -232 -291c-160 0 -204 157 -284 157z" />
    <glyph glyph-name="odieresis" unicode="&#xf6;" horiz-adv-x="1210" 
d="M605 136c204 0 319 148 319 403c0 256 -115 403 -319 403s-319 -147 -319 -403c0 -255 115 -403 319 -403zM605 -19c-307 0 -497 212 -497 558c0 347 190 558 497 558s497 -211 497 -558c0 -346 -190 -558 -497 -558zM403 1228c-67 0 -121 54 -121 121s54 121 121 121
s121 -54 121 -121s-54 -121 -121 -121zM807 1228c-67 0 -121 54 -121 121s54 121 121 121s121 -54 121 -121s-54 -121 -121 -121z" />
    <glyph glyph-name="divide" unicode="&#xf7;" horiz-adv-x="1328" 
d="M1173 506h-1018v148h1018v-148zM665 812c-72 0 -126 52 -126 125c0 72 54 125 126 125c71 0 124 -53 124 -125c0 -73 -53 -125 -124 -125zM665 98c-72 0 -126 52 -126 125c0 72 54 125 126 125c71 0 124 -53 124 -125c0 -73 -53 -125 -124 -125z" />
    <glyph glyph-name="oslash" unicode="&#xf8;" horiz-adv-x="1210" 
d="M856 815l-427 -629c48 -33 107 -50 176 -50c204 0 319 148 319 403c0 115 -23 209 -68 276zM344 280l425 620c-46 28 -100 42 -164 42c-204 0 -319 -147 -319 -403c0 -106 20 -193 58 -259zM1018 1054l-62 -92c94 -96 146 -241 146 -423c0 -346 -190 -558 -497 -558
c-103 0 -194 24 -268 69l-59 -87l-104 69l67 98c-86 97 -133 236 -133 409c0 347 190 558 497 558c98 0 184 -22 256 -62l57 83z" />
    <glyph glyph-name="ugrave" unicode="&#xf9;" horiz-adv-x="1222" 
d="M1054 1078v-1078h-164v169h-16c-54 -120 -179 -188 -344 -188c-242 0 -378 144 -378 399v698h172v-656c0 -194 82 -284 254 -284c190 0 304 113 304 302v638h172zM731 1263h-194l-278 338h220z" />
    <glyph glyph-name="uacute" unicode="&#xfa;" horiz-adv-x="1222" 
d="M1054 1078v-1078h-164v169h-16c-54 -120 -179 -188 -344 -188c-242 0 -378 144 -378 399v698h172v-656c0 -194 82 -284 254 -284c190 0 304 113 304 302v638h172zM495 1263l252 338h220l-278 -338h-194z" />
    <glyph glyph-name="ucircumflex" unicode="&#xfb;" horiz-adv-x="1222" 
d="M1054 1078v-1078h-164v169h-16c-54 -120 -179 -188 -344 -188c-242 0 -378 144 -378 399v698h172v-656c0 -194 82 -284 254 -284c190 0 304 113 304 302v638h172zM710 1568l282 -340h-198l-177 227h-16l-177 -227h-198l282 340h202z" />
    <glyph glyph-name="udieresis" unicode="&#xfc;" horiz-adv-x="1222" 
d="M1054 1078v-1078h-164v169h-16c-54 -120 -179 -188 -344 -188c-242 0 -378 144 -378 399v698h172v-656c0 -194 82 -284 254 -284c190 0 304 113 304 302v638h172zM407 1228c-67 0 -121 54 -121 121s54 121 121 121s121 -54 121 -121s-54 -121 -121 -121zM811 1228
c-67 0 -121 54 -121 121s54 121 121 121s121 -54 121 -121s-54 -121 -121 -121z" />
    <glyph glyph-name="yacute" unicode="&#xfd;" horiz-adv-x="1112" 
d="M254 -391c-23 0 -53 2 -77 6v147c21 -4 48 -5 72 -5c99 0 153 48 198 178l20 64l-399 1079h186l296 -887h16l295 887h183l-421 -1144c-92 -250 -178 -325 -369 -325zM437 1263l252 338h220l-278 -338h-194z" />
    <glyph glyph-name="thorn" unicode="&#xfe;" horiz-adv-x="1258" 
d="M697 1097c275 0 453 -219 453 -558c0 -337 -179 -558 -453 -558c-154 0 -278 67 -337 181h-16v-522h-172v1866h164v-608h16c69 124 198 199 345 199zM656 136c198 0 316 151 316 403s-118 403 -315 403c-195 0 -318 -155 -318 -403c0 -247 123 -403 317 -403z" />
    <glyph glyph-name="ydieresis" unicode="&#xff;" horiz-adv-x="1112" 
d="M254 -391c-23 0 -53 2 -77 6v147c21 -4 48 -5 72 -5c99 0 153 48 198 178l20 64l-399 1079h186l296 -887h16l295 887h183l-421 -1144c-92 -250 -178 -325 -369 -325zM349 1228c-67 0 -121 54 -121 121s54 121 121 121s121 -54 121 -121s-54 -121 -121 -121zM753 1228
c-67 0 -121 54 -121 121s54 121 121 121s121 -54 121 -121s-54 -121 -121 -121z" />
    <glyph glyph-name="Amacron" unicode="&#x100;" horiz-adv-x="1380" 
d="M1122 0l-145 413h-574l-145 -413h-189l532 1443h178l532 -1443h-189zM682 1210l-226 -644h468l-226 644h-16zM1027 1620h-674v136h674v-136z" />
    <glyph glyph-name="amacron" unicode="&#x101;" horiz-adv-x="1130" 
d="M494 132c177 0 308 116 308 270v99l-290 -19c-164 -11 -236 -68 -236 -176c0 -110 93 -174 218 -174zM462 -19c-209 0 -364 124 -364 321c0 193 142 304 393 319l311 19v98c0 133 -83 206 -244 206c-129 0 -219 -49 -243 -134h-174c23 173 193 287 423 287
c263 0 410 -135 410 -359v-738h-164v159h-16c-70 -115 -188 -178 -332 -178zM901 1286h-674v136h674v-136z" />
    <glyph glyph-name="Abreve" unicode="&#x102;" horiz-adv-x="1380" 
d="M1122 0l-145 413h-574l-145 -413h-189l532 1443h178l532 -1443h-189zM682 1210l-226 -644h468l-226 644h-16zM326 1873h154c0 -105 80 -173 210 -173s210 68 210 173h154c0 -179 -138 -298 -364 -298s-364 119 -364 298z" />
    <glyph glyph-name="abreve" unicode="&#x103;" horiz-adv-x="1130" 
d="M494 132c177 0 308 116 308 270v99l-290 -19c-164 -11 -236 -68 -236 -176c0 -110 93 -174 218 -174zM462 -19c-209 0 -364 124 -364 321c0 193 142 304 393 319l311 19v98c0 133 -83 206 -244 206c-129 0 -219 -49 -243 -134h-174c23 173 193 287 423 287
c263 0 410 -135 410 -359v-738h-164v159h-16c-70 -115 -188 -178 -332 -178zM198 1556h154c0 -115 74 -200 210 -200s210 85 210 200h154c0 -189 -136 -328 -364 -328s-364 139 -364 328z" />
    <glyph glyph-name="Aogonek" unicode="&#x104;" horiz-adv-x="1380" 
d="M682 1210l-226 -644h468l-226 644h-16zM1341 -412c-20 -12 -69 -20 -121 -20c-147 0 -241 86 -241 221c0 88 46 169 134 238l-136 386h-574l-145 -413h-189l532 1443h178l527 -1430c-102 -45 -162 -120 -162 -203c0 -66 48 -108 122 -108c25 0 52 3 75 9v-123z" />
    <glyph glyph-name="aogonek" unicode="&#x105;" horiz-adv-x="1130" 
d="M499 132c172 0 303 116 303 270v111l-285 -16c-155 -9 -241 -74 -241 -182c0 -110 88 -183 223 -183zM1016 -412c-24 -12 -71 -20 -120 -20c-138 0 -231 86 -231 215c0 91 48 175 145 240v136h-16c-70 -115 -188 -178 -336 -178c-214 0 -360 133 -360 330
c0 193 142 308 400 323l304 18v86c-2 133 -83 206 -244 206c-129 0 -219 -49 -243 -134h-174c23 173 193 287 423 287c263 0 410 -135 410 -359v-719c-107 -60 -152 -122 -152 -199c0 -72 47 -118 118 -118c31 0 59 3 76 9v-123z" />
    <glyph glyph-name="Cacute" unicode="&#x106;" horiz-adv-x="1466" 
d="M765 -34c-392 0 -637 290 -637 755c0 466 244 756 636 756c304 0 541 -191 584 -469h-183c-48 186 -202 303 -401 303c-277 0 -451 -228 -451 -590s174 -589 452 -589c201 0 354 103 400 270h183c-48 -265 -276 -436 -583 -436zM658 1577l310 298h226l-332 -298h-204z
" />
    <glyph glyph-name="cacute" unicode="&#x107;" horiz-adv-x="1146" 
d="M1054 748h-174c-28 107 -123 194 -278 194c-194 0 -316 -155 -316 -399c0 -249 124 -407 316 -407c145 0 246 67 278 189h174c-31 -198 -192 -344 -451 -344c-302 0 -495 219 -495 562c0 336 192 554 494 554c262 0 422 -157 452 -349zM486 1263l252 338h220l-278 -338
h-194z" />
    <glyph glyph-name="Ccircumflex" unicode="&#x108;" horiz-adv-x="1466" 
d="M765 -34c-392 0 -637 290 -637 755c0 466 244 756 636 756c304 0 541 -191 584 -469h-183c-48 186 -202 303 -401 303c-277 0 -451 -228 -451 -590s174 -589 452 -589c201 0 354 103 400 270h183c-48 -265 -276 -436 -583 -436zM846 1875l300 -298h-202l-172 177h-16
l-172 -177h-202l300 298h164z" />
    <glyph glyph-name="ccircumflex" unicode="&#x109;" horiz-adv-x="1146" 
d="M1054 748h-174c-28 107 -123 194 -278 194c-194 0 -316 -155 -316 -399c0 -249 124 -407 316 -407c145 0 246 67 278 189h174c-31 -198 -192 -344 -451 -344c-302 0 -495 219 -495 562c0 336 192 554 494 554c262 0 422 -157 452 -349zM701 1568l282 -340h-198l-177 227
h-16l-177 -227h-198l282 340h202z" />
    <glyph glyph-name="Cdotaccent" unicode="&#x10a;" horiz-adv-x="1466" 
d="M765 -34c-392 0 -637 290 -637 755c0 466 244 756 636 756c304 0 541 -191 584 -469h-183c-48 186 -202 303 -401 303c-277 0 -451 -228 -451 -590s174 -589 452 -589c201 0 354 103 400 270h183c-48 -265 -276 -436 -583 -436zM764 1577c-67 0 -121 54 -121 121
s54 121 121 121s121 -54 121 -121s-54 -121 -121 -121z" />
    <glyph glyph-name="cdotaccent" unicode="&#x10b;" horiz-adv-x="1146" 
d="M1054 748h-174c-28 107 -123 194 -278 194c-194 0 -316 -155 -316 -399c0 -249 124 -407 316 -407c145 0 246 67 278 189h174c-31 -198 -192 -344 -451 -344c-302 0 -495 219 -495 562c0 336 192 554 494 554c262 0 422 -157 452 -349zM600 1287c-70 0 -128 58 -128 128
s58 127 128 127s128 -57 128 -127s-58 -128 -128 -128z" />
    <glyph glyph-name="Ccaron" unicode="&#x10c;" horiz-adv-x="1466" 
d="M765 -34c-392 0 -637 290 -637 755c0 466 244 756 636 756c304 0 541 -191 584 -469h-183c-48 186 -202 303 -401 303c-277 0 -451 -228 -451 -590s174 -589 452 -589c201 0 354 103 400 270h183c-48 -265 -276 -436 -583 -436zM846 1577h-164l-300 298h202l172 -177h16
l172 177h202z" />
    <glyph glyph-name="ccaron" unicode="&#x10d;" horiz-adv-x="1146" 
d="M1054 748h-174c-28 107 -123 194 -278 194c-194 0 -316 -155 -316 -399c0 -249 124 -407 316 -407c145 0 246 67 278 189h174c-31 -198 -192 -344 -451 -344c-302 0 -495 219 -495 562c0 336 192 554 494 554c262 0 422 -157 452 -349zM701 1228h-202l-282 340h198
l177 -227h16l177 227h198z" />
    <glyph glyph-name="Dcaron" unicode="&#x10e;" horiz-adv-x="1487" 
d="M184 1443h495c428 0 681 -267 681 -721c0 -455 -252 -722 -681 -722h-495v1443zM364 1281v-1119h303c322 0 509 206 509 558c0 353 -189 561 -509 561h-303zM676 1575h-164l-300 298h202l172 -177h16l172 177h202z" />
    <glyph glyph-name="dcaron" unicode="&#x10f;" horiz-adv-x="1357" 
d="M1207 1506h170l-50 -488h-120v488zM561 -19c-276 0 -453 219 -453 558c0 338 179 558 453 558c150 0 277 -71 338 -189h15v598h172v-1506h-164v172h-16c-68 -120 -196 -191 -345 -191zM601 942c-196 0 -315 -152 -315 -403c0 -252 118 -403 315 -403
c196 0 317 154 317 403c0 247 -122 403 -317 403z" />
    <glyph glyph-name="Dcroat" unicode="&#x110;" horiz-adv-x="1452" 
d="M364 162h303c322 0 509 206 509 558c0 353 -189 561 -509 561h-303v-455h233v-163h-233v-501zM184 1443h495c428 0 681 -267 681 -721c0 -455 -252 -722 -681 -722h-495v663h-173v163h173v617z" />
    <glyph glyph-name="dcroat" unicode="&#x111;" horiz-adv-x="1258" 
d="M601 136c196 0 317 154 317 403c0 247 -122 403 -317 403c-196 0 -315 -151 -315 -403c0 -253 119 -403 315 -403zM1210 1411v-124h-124v-1287h-164v172h-16c-67 -118 -193 -191 -345 -191c-276 0 -453 219 -453 558c0 338 179 558 453 558c152 0 278 -73 338 -189h15
v379h-260v124h260v153h172v-153h124z" />
    <glyph glyph-name="Emacron" unicode="&#x112;" horiz-adv-x="1220" 
d="M1078 162v-162h-894v1443h894v-162h-714v-463h677v-160h-677v-496h714zM968 1620h-674v136h674v-136z" />
    <glyph glyph-name="emacron" unicode="&#x113;" horiz-adv-x="1170" 
d="M592 945c-172 0 -292 -126 -305 -317h594c-4 191 -118 317 -289 317zM876 279h172c-52 -185 -218 -298 -454 -298c-299 0 -486 216 -486 557c0 339 190 559 486 559c291 0 468 -207 468 -542v-66h-775v-8c9 -213 128 -348 311 -348c139 0 233 51 278 146zM931 1286h-674
v136h674v-136z" />
    <glyph glyph-name="Ebreve" unicode="&#x114;" horiz-adv-x="1220" 
d="M1078 162v-162h-894v1443h894v-162h-714v-463h677v-160h-677v-496h714zM267 1873h154c0 -105 80 -173 210 -173s210 68 210 173h154c0 -179 -138 -298 -364 -298s-364 119 -364 298z" />
    <glyph glyph-name="ebreve" unicode="&#x115;" horiz-adv-x="1170" 
d="M592 945c-172 0 -292 -126 -305 -317h594c-4 191 -118 317 -289 317zM876 279h172c-52 -185 -218 -298 -454 -298c-299 0 -486 216 -486 557c0 339 190 559 486 559c291 0 468 -207 468 -542v-66h-775v-8c9 -213 128 -348 311 -348c139 0 233 51 278 146zM228 1556h154
c0 -115 74 -200 210 -200s210 85 210 200h154c0 -189 -136 -328 -364 -328s-364 139 -364 328z" />
    <glyph glyph-name="Edotaccent" unicode="&#x116;" horiz-adv-x="1220" 
d="M1078 162v-162h-894v1443h894v-162h-714v-463h677v-160h-677v-496h714zM631 1575c-67 0 -121 54 -121 121s54 121 121 121s121 -54 121 -121s-54 -121 -121 -121z" />
    <glyph glyph-name="edotaccent" unicode="&#x117;" horiz-adv-x="1170" 
d="M592 945c-172 0 -292 -126 -305 -317h594c-4 191 -118 317 -289 317zM876 279h172c-52 -185 -218 -298 -454 -298c-299 0 -486 216 -486 557c0 339 190 559 486 559c291 0 468 -207 468 -542v-66h-775v-8c9 -213 128 -348 311 -348c139 0 233 51 278 146zM594 1287
c-70 0 -128 58 -128 128s58 127 128 127s128 -57 128 -127s-58 -128 -128 -128z" />
    <glyph glyph-name="Eogonek" unicode="&#x118;" horiz-adv-x="1220" 
d="M838 0h-654v1443h894v-162h-714v-463h677v-160h-677v-496h714v-124c-131 -55 -197 -128 -197 -218c0 -72 47 -118 122 -118c34 0 59 3 75 9v-123c-20 -12 -69 -20 -121 -20c-146 0 -241 85 -241 214c0 92 38 160 122 218z" />
    <glyph glyph-name="eogonek" unicode="&#x119;" horiz-adv-x="1170" 
d="M796 -432c-136 0 -226 79 -226 197c0 68 37 146 98 206v16c-16 -3 -51 -6 -74 -6c-298 0 -486 215 -486 557c0 340 191 559 486 559c290 0 468 -206 468 -542v-66h-775v-8c9 -214 129 -348 311 -348c137 0 232 50 278 146h172c-22 -76 -71 -142 -185 -248
c-95 -88 -136 -155 -136 -224c0 -63 42 -105 106 -105c32 0 60 3 84 9v-123c-21 -13 -66 -20 -121 -20zM592 945c-171 0 -292 -125 -305 -317h594c-4 191 -118 317 -289 317z" />
    <glyph glyph-name="Ecaron" unicode="&#x11a;" horiz-adv-x="1220" 
d="M1078 162v-162h-894v1443h894v-162h-714v-463h677v-160h-677v-496h714zM713 1575h-164l-300 298h202l172 -177h16l172 177h202z" />
    <glyph glyph-name="ecaron" unicode="&#x11b;" horiz-adv-x="1170" 
d="M592 945c-172 0 -292 -126 -305 -317h594c-4 191 -118 317 -289 317zM876 279h172c-52 -185 -218 -298 -454 -298c-299 0 -486 216 -486 557c0 339 190 559 486 559c291 0 468 -207 468 -542v-66h-775v-8c9 -213 128 -348 311 -348c139 0 233 51 278 146zM695 1228h-202
l-282 340h198l177 -227h16l177 227h198z" />
    <glyph glyph-name="Gcircumflex" unicode="&#x11c;" horiz-adv-x="1529" 
d="M1395 558c0 -356 -244 -592 -613 -592c-399 0 -654 294 -654 756c0 456 259 755 654 755c320 0 552 -178 604 -464h-183c-62 195 -207 298 -421 298c-286 0 -469 -230 -469 -589c0 -364 180 -590 470 -590c258 0 433 165 433 409v35h-406v158h585v-176zM864 1873
l300 -298h-202l-172 177h-16l-172 -177h-202l300 298h164z" />
    <glyph glyph-name="gcircumflex" unicode="&#x11d;" horiz-adv-x="1248" 
d="M918 555c0 235 -121 387 -320 387c-200 0 -312 -152 -312 -387s112 -387 312 -387s320 152 320 387zM606 -414c-260 0 -426 117 -452 295h182c19 -88 115 -145 270 -145c193 0 308 95 308 254v212h-16c-68 -119 -190 -186 -338 -186c-279 0 -452 216 -452 539
s175 542 452 542c151 0 284 -74 346 -190h16v171h164v-1097c0 -241 -186 -395 -480 -395zM695 1568l282 -340h-198l-177 227h-16l-177 -227h-198l282 340h202z" />
    <glyph glyph-name="Gbreve" unicode="&#x11e;" horiz-adv-x="1529" 
d="M1395 558c0 -356 -244 -592 -613 -592c-399 0 -654 294 -654 756c0 456 259 755 654 755c320 0 552 -178 604 -464h-183c-62 195 -207 298 -421 298c-286 0 -469 -230 -469 -589c0 -364 180 -590 470 -590c258 0 433 165 433 409v35h-406v158h585v-176zM418 1873h154
c0 -105 80 -173 210 -173s210 68 210 173h154c0 -179 -138 -298 -364 -298s-364 119 -364 298z" />
    <glyph glyph-name="gbreve" unicode="&#x11f;" horiz-adv-x="1248" 
d="M918 555c0 235 -121 387 -320 387c-200 0 -312 -152 -312 -387s112 -387 312 -387s320 152 320 387zM606 -414c-260 0 -426 117 -452 295h182c19 -88 115 -145 270 -145c193 0 308 95 308 254v212h-16c-68 -119 -190 -186 -338 -186c-279 0 -452 216 -452 539
s175 542 452 542c151 0 284 -74 346 -190h16v171h164v-1097c0 -241 -186 -395 -480 -395zM228 1556h154c0 -115 74 -200 210 -200s210 85 210 200h154c0 -189 -136 -328 -364 -328s-364 139 -364 328z" />
    <glyph glyph-name="Gdotaccent" unicode="&#x120;" horiz-adv-x="1529" 
d="M1395 558c0 -356 -244 -592 -613 -592c-399 0 -654 294 -654 756c0 456 259 755 654 755c320 0 552 -178 604 -464h-183c-62 195 -207 298 -421 298c-286 0 -469 -230 -469 -589c0 -364 180 -590 470 -590c258 0 433 165 433 409v35h-406v158h585v-176zM782 1575
c-67 0 -121 54 -121 121s54 121 121 121s121 -54 121 -121s-54 -121 -121 -121z" />
    <glyph glyph-name="gdotaccent" unicode="&#x121;" horiz-adv-x="1248" 
d="M918 555c0 235 -121 387 -320 387c-200 0 -312 -152 -312 -387s112 -387 312 -387s320 152 320 387zM606 -414c-260 0 -426 117 -452 295h182c19 -88 115 -145 270 -145c193 0 308 95 308 254v212h-16c-68 -119 -190 -186 -338 -186c-279 0 -452 216 -452 539
s175 542 452 542c151 0 284 -74 346 -190h16v171h164v-1097c0 -241 -186 -395 -480 -395zM594 1287c-70 0 -128 58 -128 128s58 127 128 127s128 -57 128 -127s-58 -128 -128 -128z" />
    <glyph glyph-name="Gcommaaccent" unicode="&#x122;" horiz-adv-x="1529" 
d="M1395 558c0 -356 -244 -592 -613 -592c-399 0 -654 294 -654 756c0 456 259 755 654 755c320 0 552 -178 604 -464h-183c-62 195 -207 298 -421 298c-286 0 -469 -230 -469 -589c0 -364 180 -590 470 -590c258 0 433 165 433 409v35h-406v158h585v-176zM785 -518h-167
l102 377h182z" />
    <glyph glyph-name="gcommaaccent" unicode="&#x123;" horiz-adv-x="1248" 
d="M918 555c0 235 -121 387 -320 387c-200 0 -312 -152 -312 -387s112 -387 312 -387s320 152 320 387zM606 -414c-260 0 -426 117 -452 295h182c19 -88 115 -145 270 -145c193 0 308 95 308 254v212h-16c-68 -119 -190 -186 -338 -186c-279 0 -452 216 -452 539
s175 542 452 542c151 0 284 -74 346 -190h16v171h164v-1097c0 -241 -186 -395 -480 -395zM604 1663h167l-102 -377h-182z" />
    <glyph glyph-name="Hcircumflex" unicode="&#x124;" horiz-adv-x="1520" 
d="M1336 0h-180v657h-792v-657h-180v1443h180v-624h792v624h180v-1443zM842 1873l300 -298h-202l-172 177h-16l-172 -177h-202l300 298h164z" />
    <glyph glyph-name="hcircumflex" unicode="&#x125;" horiz-adv-x="1236" 
d="M172 0v1506h172v-598h16c54 119 177 189 342 189c245 0 382 -146 382 -399v-698h-172v656c0 191 -84 286 -259 286c-193 0 -309 -122 -309 -304v-638h-172zM340 1936l300 -298h-202l-172 177h-16l-172 -177h-202l300 298h164z" />
    <glyph glyph-name="Hbar" unicode="&#x126;" horiz-adv-x="1472" 
d="M1132 819v256h-792v-256h792zM1448 1218v-143h-136v-1075h-180v657h-792v-657h-180v1075h-136v143h136v225h180v-225h792v225h180v-225h136z" />
    <glyph glyph-name="hbar" unicode="&#x127;" horiz-adv-x="1246" 
d="M344 908h16c54 119 182 189 347 189c245 0 387 -146 387 -399v-698h-172v656c0 191 -89 286 -264 286c-193 0 -314 -122 -314 -304v-638h-172v1287h-124v124h124v153h172v-153h260v-124h-260v-379z" />
    <glyph glyph-name="Itilde" unicode="&#x128;" horiz-adv-x="548" 
d="M364 0h-180v1443h180v-1443zM424 1575c-162 0 -192 168 -296 168c-57 0 -90 -38 -94 -151h-136c0 179 88 281 226 281c173 0 211 -168 296 -168c48 0 89 33 95 151h135c0 -171 -88 -281 -226 -281z" />
    <glyph glyph-name="itilde" unicode="&#x129;" horiz-adv-x="516" 
d="M172 0v1078h172v-1078h-172zM120 1388c-70 0 -98 -44 -98 -157h-142c0 182 87 291 232 291c160 0 204 -157 284 -157c70 0 98 44 98 157h142c0 -182 -87 -291 -232 -291c-160 0 -204 157 -284 157z" />
    <glyph glyph-name="Imacron" unicode="&#x12a;" horiz-adv-x="548" 
d="M364 0h-180v1443h180v-1443zM611 1620h-674v136h674v-136z" />
    <glyph glyph-name="imacron" unicode="&#x12b;" horiz-adv-x="516" 
d="M172 0v1078h172v-1078h-172zM595 1286h-674v136h674v-136z" />
    <glyph glyph-name="Ibreve" unicode="&#x12c;" horiz-adv-x="548" 
d="M364 0h-180v1443h180v-1443zM-90 1873h154c0 -105 80 -173 210 -173s210 68 210 173h154c0 -179 -138 -298 -364 -298s-364 119 -364 298z" />
    <glyph glyph-name="ibreve" unicode="&#x12d;" horiz-adv-x="516" 
d="M172 0v1078h172v-1078h-172zM-108 1556h154c0 -115 74 -200 210 -200s210 85 210 200h154c0 -189 -136 -328 -364 -328s-364 139 -364 328z" />
    <glyph glyph-name="Iogonek" unicode="&#x12e;" horiz-adv-x="548" 
d="M402 -412c-26 -12 -74 -20 -120 -20c-138 0 -231 86 -231 215c0 89 47 175 133 240v1420h180v-1434c-108 -61 -156 -123 -156 -194c0 -68 48 -113 120 -113c26 0 56 4 74 9v-123z" />
    <glyph glyph-name="iogonek" unicode="&#x12f;" horiz-adv-x="516" 
d="M252 1297c-66 0 -120 54 -120 120s54 120 120 120s120 -54 120 -120s-54 -120 -120 -120zM380 -412c-26 -12 -74 -20 -120 -20c-138 0 -231 86 -231 215c0 87 49 174 137 240v1055h172v-1059c-106 -60 -152 -122 -152 -204c0 -68 48 -113 120 -113c25 0 55 4 74 9v-123z
" />
    <glyph glyph-name="Idotaccent" unicode="&#x130;" horiz-adv-x="548" 
d="M364 0h-180v1443h180v-1443zM274 1575c-67 0 -121 54 -121 121s54 121 121 121s121 -54 121 -121s-54 -121 -121 -121z" />
    <glyph glyph-name="dotlessi" unicode="&#x131;" horiz-adv-x="516" 
d="M172 0v1078h172v-1078h-172z" />
    <glyph glyph-name="u0132" unicode="&#x132;" horiz-adv-x="1650" 
d="M364 0h-180v1443h180v-1443zM634 337h179c4 -121 96 -205 232 -205c154 0 241 94 241 271v1040h180v-1041c0 -275 -159 -436 -420 -436c-242 0 -412 150 -412 371z" />
    <glyph glyph-name="u0133" unicode="&#x133;" horiz-adv-x="1032" 
d="M166 0v1078h172v-1078h-172zM252 1297c-66 0 -120 54 -120 120s54 120 120 120s120 -54 120 -120s-54 -120 -120 -120zM854 1078v-1159c0 -222 -104 -317 -330 -317h-30v147h26c122 0 162 48 162 167v1162h172zM768 1297c-66 0 -120 54 -120 120s54 120 120 120
s120 -54 120 -120s-54 -120 -120 -120z" />
    <glyph glyph-name="Jcircumflex" unicode="&#x134;" horiz-adv-x="1102" 
d="M86 337h179c4 -121 96 -205 232 -205c154 0 241 94 241 271v1040h180v-1041c0 -275 -159 -436 -420 -436c-242 0 -412 150 -412 371zM910 1873l300 -298h-202l-172 177h-16l-172 -177h-202l300 298h164z" />
    <glyph glyph-name="jcircumflex" unicode="&#x135;" horiz-adv-x="504" 
d="M332 1078v-1159c0 -222 -104 -317 -330 -317h-30v147h26c122 0 162 48 162 167v1162h172zM355 1568l282 -340h-198l-177 227h-16l-177 -227h-198l282 340h202z" />
    <glyph glyph-name="Kcommaaccent" unicode="&#x136;" horiz-adv-x="1349" 
d="M364 0h-180v1443h180v-701h16l632 701h226l-577 -623l630 -820h-233l-521 695l-173 -191v-504zM656 -518h-167l102 377h182z" />
    <glyph glyph-name="kcommaaccent" unicode="&#x137;" horiz-adv-x="1112" 
d="M360 607l468 471h211l-464 -462l495 -616h-219l-404 505l-103 -96v-409h-172v1506h172v-899h16zM606 -518h-167l102 377h182z" />
    <glyph glyph-name="Lacute" unicode="&#x139;" horiz-adv-x="1163" 
d="M1060 162v-162h-876v1443h180v-1281h696zM168 1575l310 298h226l-332 -298h-204z" />
    <glyph glyph-name="lacute" unicode="&#x13a;" horiz-adv-x="516" 
d="M172 0v1506h172v-1506h-172zM152 1638l310 298h226l-332 -298h-204z" />
    <glyph glyph-name="Lcommaaccent" unicode="&#x13b;" horiz-adv-x="1163" 
d="M1060 162v-162h-876v1443h180v-1281h696zM625 -518h-167l102 377h182z" />
    <glyph glyph-name="lcommaaccent" unicode="&#x13c;" horiz-adv-x="516" 
d="M172 0v1506h172v-1506h-172zM261 -518h-167l102 377h182z" />
    <glyph glyph-name="Lcaron" unicode="&#x13d;" horiz-adv-x="1163" 
d="M589 1443h170l-50 -488h-120v488zM1060 162v-162h-876v1443h180v-1281h696z" />
    <glyph glyph-name="lcaron" unicode="&#x13e;" horiz-adv-x="615" 
d="M465 1506h170l-50 -488h-120v488zM172 0v1506h172v-1506h-172z" />
    <glyph glyph-name="Lslash" unicode="&#x141;" horiz-adv-x="1115" 
d="M364 162h696v-162h-876v719l-166 -76v143l166 76v581h180v-499l292 133v-143l-292 -133v-639z" />
    <glyph glyph-name="lslash" unicode="&#x142;" horiz-adv-x="516" 
d="M472 994v-143l-128 -61v-790h-172v707l-128 -61v143l128 61v656h172v-573z" />
    <glyph glyph-name="Nacute" unicode="&#x143;" horiz-adv-x="1520" 
d="M362 0h-178v1443h175l783 -1123h16v1123h178v-1443h-175l-783 1119h-16v-1119zM654 1575l310 298h226l-332 -298h-204z" />
    <glyph glyph-name="nacute" unicode="&#x144;" horiz-adv-x="1215" 
d="M162 0v1078h164v-170h16c54 119 179 189 344 189c242 0 377 -143 377 -399v-698h-172v656c0 194 -82 286 -254 286c-189 0 -303 -115 -303 -304v-638h-172zM513 1263l252 338h220l-278 -338h-194z" />
    <glyph glyph-name="Ncommaaccent" unicode="&#x145;" horiz-adv-x="1520" 
d="M362 0h-178v1443h175l783 -1123h16v1123h178v-1443h-175l-783 1119h-16v-1119zM763 -518h-167l102 377h182z" />
    <glyph glyph-name="ncommaaccent" unicode="&#x146;" horiz-adv-x="1215" 
d="M162 0v1078h164v-170h16c54 119 179 189 344 189c242 0 377 -143 377 -399v-698h-172v656c0 194 -82 286 -254 286c-189 0 -303 -115 -303 -304v-638h-172zM616 -518h-167l102 377h182z" />
    <glyph glyph-name="Ncaron" unicode="&#x147;" horiz-adv-x="1520" 
d="M362 0h-178v1443h175l783 -1123h16v1123h178v-1443h-175l-783 1119h-16v-1119zM842 1575h-164l-300 298h202l172 -177h16l172 177h202z" />
    <glyph glyph-name="ncaron" unicode="&#x148;" horiz-adv-x="1215" 
d="M162 0v1078h164v-170h16c54 119 179 189 344 189c242 0 377 -143 377 -399v-698h-172v656c0 194 -82 286 -254 286c-189 0 -303 -115 -303 -304v-638h-172zM728 1228h-202l-282 340h198l177 -227h16l177 227h198z" />
    <glyph glyph-name="Omacron" unicode="&#x14c;" horiz-adv-x="1579" 
d="M791 1477c410 0 660 -292 660 -755c0 -461 -248 -756 -660 -756c-414 0 -663 294 -663 756c0 464 255 755 663 755zM791 1311c-294 0 -478 -228 -478 -589c0 -358 178 -590 478 -590c296 0 475 232 475 590c0 361 -180 589 -475 589zM1128 1620h-674v136h674v-136z" />
    <glyph glyph-name="omacron" unicode="&#x14d;" horiz-adv-x="1210" 
d="M605 136c204 0 319 148 319 403c0 256 -115 403 -319 403s-319 -147 -319 -403c0 -255 115 -403 319 -403zM605 -19c-307 0 -497 212 -497 558c0 347 190 558 497 558s497 -211 497 -558c0 -346 -190 -558 -497 -558zM942 1286h-674v136h674v-136z" />
    <glyph glyph-name="Obreve" unicode="&#x14e;" horiz-adv-x="1579" 
d="M791 1477c410 0 660 -292 660 -755c0 -461 -248 -756 -660 -756c-414 0 -663 294 -663 756c0 464 255 755 663 755zM791 1311c-294 0 -478 -228 -478 -589c0 -358 178 -590 478 -590c296 0 475 232 475 590c0 361 -180 589 -475 589zM427 1873h154
c0 -105 80 -173 210 -173s210 68 210 173h154c0 -179 -138 -298 -364 -298s-364 119 -364 298z" />
    <glyph glyph-name="obreve" unicode="&#x14f;" horiz-adv-x="1210" 
d="M605 136c204 0 319 148 319 403c0 256 -115 403 -319 403s-319 -147 -319 -403c0 -255 115 -403 319 -403zM605 -19c-307 0 -497 212 -497 558c0 347 190 558 497 558s497 -211 497 -558c0 -346 -190 -558 -497 -558zM239 1556h154c0 -115 74 -200 210 -200
s210 85 210 200h154c0 -189 -136 -328 -364 -328s-364 139 -364 328z" />
    <glyph glyph-name="Ohungarumlaut" unicode="&#x150;" horiz-adv-x="1579" 
d="M791 1477c410 0 660 -292 660 -755c0 -461 -248 -756 -660 -756c-414 0 -663 294 -663 756c0 464 255 755 663 755zM791 1311c-294 0 -478 -228 -478 -589c0 -358 178 -590 478 -590c296 0 475 232 475 590c0 361 -180 589 -475 589zM841 1575l310 298h226l-332 -298
h-204zM427 1575l310 298h226l-332 -298h-204z" />
    <glyph glyph-name="ohungarumlaut" unicode="&#x151;" horiz-adv-x="1210" 
d="M605 136c204 0 319 148 319 403c0 256 -115 403 -319 403s-319 -147 -319 -403c0 -255 115 -403 319 -403zM605 -19c-307 0 -497 212 -497 558c0 347 190 558 497 558s497 -211 497 -558c0 -346 -190 -558 -497 -558zM670 1263l252 338h210l-280 -338h-182zM270 1263
l252 338h210l-280 -338h-182z" />
    <glyph glyph-name="OE" unicode="&#x152;" horiz-adv-x="2325" 
d="M801 1311c-301 0 -488 -225 -488 -589c0 -366 185 -590 488 -590c290 0 467 224 467 590s-177 589 -467 589zM1289 0v247h-16c-88 -168 -285 -281 -492 -281c-402 0 -653 291 -653 756c0 462 253 755 653 755c203 0 403 -110 492 -271h16v237h894v-162h-732v-463h695
v-160h-695v-496h732v-162h-894z" />
    <glyph glyph-name="oe" unicode="&#x153;" horiz-adv-x="1987" 
d="M1411 -19c-179 0 -335 91 -390 228h-16c-56 -137 -215 -228 -400 -228c-308 0 -497 213 -497 558c0 346 189 558 497 558c180 0 329 -86 401 -232h16c72 146 217 232 389 232c290 0 468 -205 468 -541v-66h-775v-8c9 -214 129 -348 311 -348c138 0 233 49 278 145h172
c-53 -187 -221 -298 -454 -298zM1409 946c-171 0 -292 -125 -305 -317h594c-4 191 -118 317 -289 317zM605 136c203 0 319 147 319 403c0 257 -116 403 -319 403s-319 -146 -319 -403c0 -256 116 -403 319 -403z" />
    <glyph glyph-name="Racute" unicode="&#x154;" horiz-adv-x="1338" 
d="M364 1283v-552h355c185 0 290 99 290 276c0 173 -112 276 -298 276h-347zM364 571v-571h-180v1443h551c278 0 460 -170 460 -430c0 -201 -109 -357 -290 -414l334 -599h-211l-309 571h-355zM503 1575l310 298h226l-332 -298h-204z" />
    <glyph glyph-name="racute" unicode="&#x155;" horiz-adv-x="765" 
d="M162 0v1078h164v-160h16c32 105 156 179 299 179c28 0 64 -2 86 -5v-172c-14 4 -76 10 -110 10c-164 0 -283 -110 -283 -262v-668h-172zM264 1263l252 338h220l-278 -338h-194z" />
    <glyph glyph-name="Rcommaaccent" unicode="&#x156;" horiz-adv-x="1338" 
d="M364 1283v-552h355c185 0 290 99 290 276c0 173 -112 276 -298 276h-347zM364 571v-571h-180v1443h551c278 0 460 -170 460 -430c0 -201 -109 -357 -290 -414l334 -599h-211l-309 571h-355zM612 -518h-167l102 377h182z" />
    <glyph glyph-name="rcommaaccent" unicode="&#x157;" horiz-adv-x="765" 
d="M162 0v1078h164v-160h16c32 105 156 179 299 179c28 0 64 -2 86 -5v-172c-14 4 -76 10 -110 10c-164 0 -283 -110 -283 -262v-668h-172zM251 -518h-167l102 377h182z" />
    <glyph glyph-name="Rcaron" unicode="&#x158;" horiz-adv-x="1338" 
d="M364 1283v-552h355c185 0 290 99 290 276c0 173 -112 276 -298 276h-347zM364 571v-571h-180v1443h551c278 0 460 -170 460 -430c0 -201 -109 -357 -290 -414l334 -599h-211l-309 571h-355zM691 1575h-164l-300 298h202l172 -177h16l172 177h202z" />
    <glyph glyph-name="rcaron" unicode="&#x159;" horiz-adv-x="765" 
d="M162 0v1078h164v-160h16c32 105 156 179 299 179c28 0 64 -2 86 -5v-172c-14 4 -76 10 -110 10c-164 0 -283 -110 -283 -262v-668h-172zM479 1228h-202l-282 340h198l177 -227h16l177 227h198z" />
    <glyph glyph-name="Sacute" unicode="&#x15a;" horiz-adv-x="1305" 
d="M115 377h182c22 -151 166 -247 371 -247c194 0 337 105 337 248c0 123 -90 201 -289 251l-185 48c-261 66 -374 184 -374 389c0 245 205 411 510 411c279 0 487 -166 502 -399h-181c-25 148 -147 236 -327 236c-192 0 -319 -96 -319 -242c0 -113 79 -178 278 -229
l151 -40c299 -75 419 -191 419 -403c0 -265 -209 -434 -539 -434c-306 0 -517 162 -536 411zM561 1575l310 298h226l-332 -298h-204z" />
    <glyph glyph-name="sacute" unicode="&#x15b;" horiz-adv-x="1072" 
d="M137 783c0 179 173 314 402 314c226 0 383 -112 406 -289h-170c-23 86 -107 143 -237 143c-128 0 -228 -65 -228 -161c0 -74 60 -120 187 -151l166 -40c203 -49 301 -137 301 -292c0 -193 -187 -326 -432 -326c-240 0 -405 115 -424 294h177c29 -91 115 -149 253 -149
c145 0 249 69 249 168c0 74 -56 124 -171 152l-185 45c-202 49 -294 136 -294 292zM425 1263l252 338h220l-278 -338h-194z" />
    <glyph glyph-name="Scircumflex" unicode="&#x15c;" horiz-adv-x="1305" 
d="M115 377h182c22 -151 166 -247 371 -247c194 0 337 105 337 248c0 123 -90 201 -289 251l-185 48c-261 66 -374 184 -374 389c0 245 205 411 510 411c279 0 487 -166 502 -399h-181c-25 148 -147 236 -327 236c-192 0 -319 -96 -319 -242c0 -113 79 -178 278 -229
l151 -40c299 -75 419 -191 419 -403c0 -265 -209 -434 -539 -434c-306 0 -517 162 -536 411zM749 1873l300 -298h-202l-172 177h-16l-172 -177h-202l300 298h164z" />
    <glyph glyph-name="scircumflex" unicode="&#x15d;" horiz-adv-x="1072" 
d="M137 783c0 179 173 314 402 314c226 0 383 -112 406 -289h-170c-23 86 -107 143 -237 143c-128 0 -228 -65 -228 -161c0 -74 60 -120 187 -151l166 -40c203 -49 301 -137 301 -292c0 -193 -187 -326 -432 -326c-240 0 -405 115 -424 294h177c29 -91 115 -149 253 -149
c145 0 249 69 249 168c0 74 -56 124 -171 152l-185 45c-202 49 -294 136 -294 292zM640 1568l282 -340h-198l-177 227h-16l-177 -227h-198l282 340h202z" />
    <glyph glyph-name="Scedilla" unicode="&#x15e;" horiz-adv-x="1305" 
d="M620 843l151 -40c299 -75 419 -191 419 -403c0 -245 -179 -408 -467 -431l-43 -111c136 0 215 -60 215 -163c0 -111 -91 -189 -244 -189c-59 0 -105 6 -146 18v108c24 -7 86 -14 122 -14c77 0 119 26 119 73c0 46 -43 65 -149 65h-59v84l51 128
c-272 21 -456 177 -474 409h182c22 -151 166 -247 371 -247c194 0 337 105 337 248c0 123 -90 201 -289 251l-185 48c-261 66 -374 184 -374 389c0 245 205 411 510 411c279 0 487 -166 502 -399h-181c-25 148 -147 236 -327 236c-192 0 -319 -96 -319 -242
c0 -113 79 -178 278 -229z" />
    <glyph glyph-name="scedilla" unicode="&#x15f;" horiz-adv-x="1072" 
d="M497 639l166 -40c203 -49 301 -137 301 -292c0 -172 -148 -296 -354 -321l-49 -128c136 0 215 -60 215 -163c0 -111 -91 -189 -244 -189c-59 0 -105 6 -146 18v108c24 -7 86 -14 122 -14c77 0 119 26 119 73c0 46 -43 65 -149 65h-59v84l56 143
c-209 17 -350 127 -367 292h177c29 -91 115 -149 253 -149c145 0 249 69 249 168c0 74 -56 124 -171 152l-185 45c-202 49 -294 136 -294 292c0 179 173 314 402 314c226 0 383 -112 406 -289h-170c-23 86 -107 143 -237 143c-128 0 -228 -65 -228 -161
c0 -74 60 -120 187 -151z" />
    <glyph glyph-name="Scaron" unicode="&#x160;" horiz-adv-x="1305" 
d="M115 377h182c22 -151 166 -247 371 -247c194 0 337 105 337 248c0 123 -90 201 -289 251l-185 48c-261 66 -374 184 -374 389c0 245 205 411 510 411c279 0 487 -166 502 -399h-181c-25 148 -147 236 -327 236c-192 0 -319 -96 -319 -242c0 -113 79 -178 278 -229
l151 -40c299 -75 419 -191 419 -403c0 -265 -209 -434 -539 -434c-306 0 -517 162 -536 411zM749 1575h-164l-300 298h202l172 -177h16l172 177h202z" />
    <glyph glyph-name="scaron" unicode="&#x161;" horiz-adv-x="1072" 
d="M137 783c0 179 173 314 402 314c226 0 383 -112 406 -289h-170c-23 86 -107 143 -237 143c-128 0 -228 -65 -228 -161c0 -74 60 -120 187 -151l166 -40c203 -49 301 -137 301 -292c0 -193 -187 -326 -432 -326c-240 0 -405 115 -424 294h177c29 -91 115 -149 253 -149
c145 0 249 69 249 168c0 74 -56 124 -171 152l-185 45c-202 49 -294 136 -294 292zM640 1228h-202l-282 340h198l177 -227h16l177 227h198z" />
    <glyph glyph-name="Tcedilla" unicode="&#x162;" horiz-adv-x="1298" 
d="M739 1281v-1281l-55 -142c136 0 215 -60 215 -163c0 -111 -91 -189 -244 -189c-59 0 -105 6 -146 18v108c24 -7 86 -14 122 -14c77 0 119 26 119 73c0 46 -43 65 -149 65h-59v84l63 160h-46v1281h-465v162h1110v-162h-465z" />
    <glyph glyph-name="tcedilla" unicode="&#x163;" horiz-adv-x="744" 
d="M411 -494c-59 0 -105 6 -146 18v108c24 -7 86 -14 122 -14c77 0 119 26 119 73c0 46 -43 65 -149 65h-59v84l70 180c-94 39 -134 121 -134 260v654h-181v144h181v269h172v-269h250v-144h-250v-610c0 -127 48 -181 160 -181c31 0 46 1 78 4v-145c-34 -6 -65 -10 -99 -10
c-19 0 -36 1 -53 2l-52 -136c136 0 215 -60 215 -163c0 -111 -91 -189 -244 -189z" />
    <glyph glyph-name="Tcaron" unicode="&#x164;" horiz-adv-x="1298" 
d="M739 0h-180v1281h-465v162h1110v-162h-465v-1281zM731 1575h-164l-300 298h202l172 -177h16l172 177h202z" />
    <glyph glyph-name="tcaron" unicode="&#x165;" horiz-adv-x="744" 
d="M659 1232h-120v488h170zM234 1347h172v-269h250v-144h-250v-610c0 -127 48 -181 160 -181c31 0 46 1 78 4v-145c-34 -6 -65 -10 -99 -10c-222 0 -311 82 -311 288v654h-181v144h181v269z" />
    <glyph glyph-name="Tbar" unicode="&#x166;" horiz-adv-x="1298" 
d="M1204 1281h-465v-488h305v-143h-305v-650h-180v650h-305v143h305v488h-465v162h1110v-162z" />
    <glyph glyph-name="tbar" unicode="&#x167;" horiz-adv-x="739" 
d="M656 934h-250v-295h249v-144h-249v-171c0 -127 48 -181 160 -181c31 0 46 1 78 4v-145c-34 -6 -65 -10 -99 -10c-222 0 -311 82 -311 288v215h-178v144h178v295h-181v144h181v269h172v-269h250v-144z" />
    <glyph glyph-name="Utilde" unicode="&#x168;" horiz-adv-x="1524" 
d="M369 1443v-935c0 -218 143 -376 393 -376s393 158 393 376v935h180v-947c0 -308 -215 -530 -573 -530s-573 222 -573 530v947h180zM912 1575c-162 0 -192 168 -296 168c-57 0 -90 -38 -94 -151h-136c0 179 88 281 226 281c173 0 211 -168 296 -168c48 0 89 33 95 151h135
c0 -171 -88 -281 -226 -281z" />
    <glyph glyph-name="utilde" unicode="&#x169;" horiz-adv-x="1222" 
d="M1054 1078v-1078h-164v169h-16c-54 -120 -179 -188 -344 -188c-242 0 -378 144 -378 399v698h172v-656c0 -194 82 -284 254 -284c190 0 304 113 304 302v638h172zM471 1388c-70 0 -98 -44 -98 -157h-142c0 182 87 291 232 291c160 0 204 -157 284 -157c70 0 98 44 98 157
h142c0 -182 -87 -291 -232 -291c-160 0 -204 157 -284 157z" />
    <glyph glyph-name="Umacron" unicode="&#x16a;" horiz-adv-x="1524" 
d="M369 1443v-935c0 -218 143 -376 393 -376s393 158 393 376v935h180v-947c0 -308 -215 -530 -573 -530s-573 222 -573 530v947h180zM1099 1620h-674v136h674v-136z" />
    <glyph glyph-name="umacron" unicode="&#x16b;" horiz-adv-x="1222" 
d="M1054 1078v-1078h-164v169h-16c-54 -120 -179 -188 -344 -188c-242 0 -378 144 -378 399v698h172v-656c0 -194 82 -284 254 -284c190 0 304 113 304 302v638h172zM946 1286h-674v136h674v-136z" />
    <glyph glyph-name="Ubreve" unicode="&#x16c;" horiz-adv-x="1524" 
d="M369 1443v-935c0 -218 143 -376 393 -376s393 158 393 376v935h180v-947c0 -308 -215 -530 -573 -530s-573 222 -573 530v947h180zM398 1873h154c0 -105 80 -173 210 -173s210 68 210 173h154c0 -179 -138 -298 -364 -298s-364 119 -364 298z" />
    <glyph glyph-name="ubreve" unicode="&#x16d;" horiz-adv-x="1222" 
d="M1054 1078v-1078h-164v169h-16c-54 -120 -179 -188 -344 -188c-242 0 -378 144 -378 399v698h172v-656c0 -194 82 -284 254 -284c190 0 304 113 304 302v638h172zM243 1556h154c0 -115 74 -200 210 -200s210 85 210 200h154c0 -189 -136 -328 -364 -328
s-364 139 -364 328z" />
    <glyph glyph-name="Uring" unicode="&#x16e;" horiz-adv-x="1524" 
d="M369 1443v-935c0 -218 143 -376 393 -376s393 158 393 376v935h180v-947c0 -308 -215 -530 -573 -530s-573 222 -573 530v947h180zM762 1571c-128 0 -232 100 -232 229s104 229 232 229s232 -100 232 -229s-104 -229 -232 -229zM762 1677c70 0 122 53 122 123
s-52 123 -122 123s-122 -53 -122 -123s52 -123 122 -123z" />
    <glyph glyph-name="uring" unicode="&#x16f;" horiz-adv-x="1222" 
d="M1054 1078v-1078h-164v169h-16c-54 -120 -179 -188 -344 -188c-242 0 -378 144 -378 399v698h172v-656c0 -194 82 -284 254 -284c190 0 304 113 304 302v638h172zM609 1228c-128 0 -232 100 -232 229s104 229 232 229s232 -100 232 -229s-104 -229 -232 -229zM609 1334
c70 0 122 53 122 123s-52 123 -122 123s-122 -53 -122 -123s52 -123 122 -123z" />
    <glyph glyph-name="Uhungarumlaut" unicode="&#x170;" horiz-adv-x="1524" 
d="M369 1443v-935c0 -218 143 -376 393 -376s393 158 393 376v935h180v-947c0 -308 -215 -530 -573 -530s-573 222 -573 530v947h180zM812 1575l310 298h226l-332 -298h-204zM398 1575l310 298h226l-332 -298h-204z" />
    <glyph glyph-name="uhungarumlaut" unicode="&#x171;" horiz-adv-x="1222" 
d="M1054 1078v-1078h-164v169h-16c-54 -120 -179 -188 -344 -188c-242 0 -378 144 -378 399v698h172v-656c0 -194 82 -284 254 -284c190 0 304 113 304 302v638h172zM674 1263l252 338h210l-280 -338h-182zM274 1263l252 338h210l-280 -338h-182z" />
    <glyph glyph-name="Uogonek" unicode="&#x172;" horiz-adv-x="1524" 
d="M1012 -432c-132 0 -227 87 -227 209c0 72 31 133 98 194v16c-33 -14 -74 -21 -121 -21c-345 0 -573 210 -573 530v947h180v-935c0 -229 154 -376 393 -376s393 147 393 376v935h180v-947c0 -438 -393 -459 -393 -685c0 -63 50 -109 119 -109c26 0 51 3 75 9v-123
c-26 -13 -72 -20 -124 -20z" />
    <glyph glyph-name="uogonek" unicode="&#x173;" horiz-adv-x="1222" 
d="M1054 -421c-26 -7 -56 -11 -88 -11c-138 0 -231 86 -231 215c0 96 53 178 155 240v146h-16c-54 -120 -179 -188 -344 -188c-242 0 -378 144 -378 399v698h172v-656c0 -193 81 -284 254 -284c190 0 304 113 304 302v638h172v-1059c-103 -46 -162 -119 -162 -199
c0 -72 47 -118 118 -118c18 0 32 1 44 3v-126z" />
    <glyph glyph-name="Wcircumflex" unicode="&#x174;" horiz-adv-x="1982" 
d="M985 1139l-332 -1139h-170l-393 1443h188l287 -1173h12l323 1173h182l323 -1173h12l287 1173h188l-393 -1443h-170l-332 1139h-12zM1073 1873l300 -298h-202l-172 177h-16l-172 -177h-202l300 298h164z" />
    <glyph glyph-name="wcircumflex" unicode="&#x175;" horiz-adv-x="1586" 
d="M1518 1078l-302 -1078h-175l-241 834h-16l-240 -834h-174l-302 1078h174l212 -862h16l241 862h165l241 -862h16l212 862h173zM894 1568l282 -340h-198l-177 227h-16l-177 -227h-198l282 340h202z" />
    <glyph glyph-name="Ycircumflex" unicode="&#x176;" horiz-adv-x="1344" 
d="M762 0h-180v621l-512 822h205l389 -641h16l389 641h205l-512 -822v-621zM754 1873l300 -298h-202l-172 177h-16l-172 -177h-202l300 298h164z" />
    <glyph glyph-name="ycircumflex" unicode="&#x177;" horiz-adv-x="1112" 
d="M254 -391c-23 0 -53 2 -77 6v147c21 -4 48 -5 72 -5c99 0 153 48 198 178l20 64l-399 1079h186l296 -887h16l295 887h183l-421 -1144c-92 -250 -178 -325 -369 -325zM652 1568l282 -340h-198l-177 227h-16l-177 -227h-198l282 340h202z" />
    <glyph glyph-name="Ydieresis" unicode="&#x178;" horiz-adv-x="1344" 
d="M762 0h-180v621l-512 822h205l389 -641h16l389 641h205l-512 -822v-621zM470 1575c-67 0 -121 54 -121 121s54 121 121 121s121 -54 121 -121s-54 -121 -121 -121zM874 1575c-67 0 -121 54 -121 121s54 121 121 121s121 -54 121 -121s-54 -121 -121 -121z" />
    <glyph glyph-name="Zacute" unicode="&#x179;" horiz-adv-x="1355" 
d="M144 0v128l817 1137v16h-789v162h1022v-128l-813 -1137v-16h830v-162h-1067zM572 1575l310 298h226l-332 -298h-204z" />
    <glyph glyph-name="zacute" unicode="&#x17a;" horiz-adv-x="1104" 
d="M137 0v126l622 792v16h-621v144h826v-129l-619 -789v-16h622v-144h-830zM431 1263l252 338h220l-278 -338h-194z" />
    <glyph glyph-name="Zdotaccent" unicode="&#x17b;" horiz-adv-x="1355" 
d="M144 0v128l817 1137v16h-789v162h1022v-128l-813 -1137v-16h830v-162h-1067zM678 1575c-67 0 -121 54 -121 121s54 121 121 121s121 -54 121 -121s-54 -121 -121 -121z" />
    <glyph glyph-name="zdotaccent" unicode="&#x17c;" horiz-adv-x="1104" 
d="M137 0v126l622 792v16h-621v144h826v-129l-619 -789v-16h622v-144h-830zM545 1287c-70 0 -128 58 -128 128s58 127 128 127s128 -57 128 -127s-58 -128 -128 -128z" />
    <glyph glyph-name="Zcaron" unicode="&#x17d;" horiz-adv-x="1355" 
d="M144 0v128l817 1137v16h-789v162h1022v-128l-813 -1137v-16h830v-162h-1067zM760 1575h-164l-300 298h202l172 -177h16l172 177h202z" />
    <glyph glyph-name="zcaron" unicode="&#x17e;" horiz-adv-x="1104" 
d="M137 0v126l622 792v16h-621v144h826v-129l-619 -789v-16h622v-144h-830zM646 1228h-202l-282 340h198l177 -227h16l177 227h198z" />
    <glyph glyph-name="florin" unicode="&#x192;" horiz-adv-x="1328" 
d="M295 -24c-85 0 -138 7 -218 27v167c65 -23 133 -35 202 -35c131 0 215 53 236 200l57 395h-336v144h356l33 227c34 236 178 366 406 366c87 0 150 -5 212 -21v-157c-56 17 -116 22 -190 22c-154 0 -235 -75 -256 -221l-31 -216h369v-144h-390l-58 -408
c-35 -245 -168 -346 -392 -346z" />
    <glyph glyph-name="Ohorn" unicode="&#x1a0;" horiz-adv-x="1649" 
d="M1451 723c0 -468 -253 -757 -661 -757s-662 289 -662 755s255 756 663 756c310 0 394 -167 517 -167c72 0 107 56 107 173v156h159v-204c0 -166 -69 -258 -193 -258c-6 0 -19 3 -26 6l-11 -12c70 -128 107 -282 107 -448zM791 1311c-294 0 -478 -227 -478 -590
c0 -362 184 -589 477 -589s476 227 476 590s-182 589 -475 589z" />
    <glyph glyph-name="ohorn" unicode="&#x1a1;" horiz-adv-x="1338" 
d="M286 539c0 -256 116 -403 319 -403s319 147 319 403c0 257 -116 403 -319 403s-319 -146 -319 -403zM1102 539c0 -345 -189 -558 -497 -558s-497 213 -497 558c0 346 189 558 497 558c256 0 325 -154 437 -154c73 0 111 36 111 153v176h159v-242
c0 -142 -77 -227 -185 -227c-23 0 -46 5 -61 11l-11 -12c29 -81 47 -176 47 -263z" />
    <glyph glyph-name="Uhorn" unicode="&#x1af;" horiz-adv-x="1788" 
d="M1335 1334c26 -28 62 -43 103 -43c86 0 121 50 121 173v156h159v-204c0 -157 -100 -265 -247 -265c-52 0 -101 16 -136 44v-699c0 -320 -228 -530 -573 -530s-573 210 -573 530v947h180v-935c0 -229 154 -376 393 -376s393 147 393 376v935h180v-109z" />
    <glyph glyph-name="uhorn" unicode="&#x1b0;" horiz-adv-x="1414" 
d="M874 169c-54 -120 -179 -188 -344 -188c-242 0 -378 144 -378 399v698h172v-656c0 -194 82 -284 254 -284c190 0 304 113 304 302v638h172v-92c26 -28 62 -43 103 -43c86 0 121 50 121 173v156h159v-204c0 -157 -100 -265 -247 -265c-53 0 -101 16 -136 44v-847h-164v169
h-16z" />
    <glyph glyph-name="u01C4" unicode="&#x1c4;" horiz-adv-x="2842" 
d="M184 1443h495c428 0 681 -267 681 -721c0 -455 -252 -722 -681 -722h-495v1443zM364 1281v-1119h303c322 0 509 206 509 558c0 353 -189 561 -509 561h-303zM1631 0v128l817 1137v16h-789v162h1022v-128l-813 -1137v-16h830v-162h-1067zM2247 1575h-164l-300 298h202
l172 -177h16l172 177h202z" />
    <glyph glyph-name="u01C5" unicode="&#x1c5;" horiz-adv-x="2591" 
d="M184 1443h495c428 0 681 -267 681 -721c0 -455 -252 -722 -681 -722h-495v1443zM364 1281v-1119h303c322 0 509 206 509 558c0 353 -189 561 -509 561h-303zM1624 0v126l622 792v16h-621v144h826v-129l-619 -789v-16h622v-144h-830zM2133 1228h-202l-282 340h198
l177 -227h16l177 227h198z" />
    <glyph glyph-name="u01C6" unicode="&#x1c6;" horiz-adv-x="2362" 
d="M561 -19c-276 0 -453 219 -453 558c0 338 179 558 453 558c150 0 277 -71 338 -189h15v598h172v-1506h-164v172h-16c-68 -120 -196 -191 -345 -191zM601 942c-196 0 -315 -152 -315 -403c0 -252 118 -403 315 -403c196 0 317 154 317 403c0 247 -122 403 -317 403z
M1395 0v126l622 792v16h-621v144h826v-129l-619 -789v-16h622v-144h-830zM1904 1228h-202l-282 340h198l177 -227h16l177 227h198z" />
    <glyph glyph-name="u01C7" unicode="&#x1c7;" horiz-adv-x="2265" 
d="M1060 162v-162h-876v1443h180v-1281h696zM1249 337h179c4 -121 96 -205 232 -205c154 0 241 94 241 271v1040h180v-1041c0 -275 -159 -436 -420 -436c-242 0 -412 150 -412 371z" />
    <glyph glyph-name="u01C8" unicode="&#x1c8;" horiz-adv-x="1679" 
d="M1060 162v-162h-876v1443h180v-1281h696zM1501 1078v-1159c0 -222 -104 -317 -330 -317h-30v147h26c122 0 162 48 162 167v1162h172zM1415 1297c-66 0 -120 54 -120 120s54 120 120 120s120 -54 120 -120s-54 -120 -120 -120z" />
    <glyph glyph-name="u01C9" unicode="&#x1c9;" horiz-adv-x="1032" 
d="M172 0v1506h172v-1506h-172zM854 1078v-1159c0 -222 -104 -317 -330 -317h-30v147h26c122 0 162 48 162 167v1162h172zM768 1297c-66 0 -120 54 -120 120s54 120 120 120s120 -54 120 -120s-54 -120 -120 -120z" />
    <glyph glyph-name="u01CA" unicode="&#x1ca;" horiz-adv-x="2622" 
d="M362 0h-178v1443h175l783 -1123h16v1123h178v-1443h-175l-783 1119h-16v-1119zM1606 337h179c4 -121 96 -205 232 -205c154 0 241 94 241 271v1040h180v-1041c0 -275 -159 -436 -420 -436c-242 0 -412 150 -412 371z" />
    <glyph glyph-name="u01CB" unicode="&#x1cb;" horiz-adv-x="2036" 
d="M362 0h-178v1443h175l783 -1123h16v1123h178v-1443h-175l-783 1119h-16v-1119zM1858 1078v-1159c0 -222 -104 -317 -330 -317h-30v147h26c122 0 162 48 162 167v1162h172zM1772 1297c-66 0 -120 54 -120 120s54 120 120 120s120 -54 120 -120s-54 -120 -120 -120z" />
    <glyph glyph-name="u01CC" unicode="&#x1cc;" horiz-adv-x="1737" 
d="M162 0v1078h164v-170h16c54 119 179 189 344 189c242 0 377 -143 377 -399v-698h-172v656c0 194 -82 286 -254 286c-189 0 -303 -115 -303 -304v-638h-172zM1559 1078v-1159c0 -222 -104 -317 -330 -317h-30v147h26c122 0 162 48 162 167v1162h172zM1473 1297
c-66 0 -120 54 -120 120s54 120 120 120s120 -54 120 -120s-54 -120 -120 -120z" />
    <glyph glyph-name="Acaron" unicode="&#x1cd;" horiz-adv-x="1380" 
d="M1122 0l-145 413h-574l-145 -413h-189l532 1443h178l532 -1443h-189zM682 1210l-226 -644h468l-226 644h-16zM772 1575h-164l-300 298h202l172 -177h16l172 177h202z" />
    <glyph glyph-name="acaron" unicode="&#x1ce;" horiz-adv-x="1130" 
d="M494 132c177 0 308 116 308 270v99l-290 -19c-164 -11 -236 -68 -236 -176c0 -110 93 -174 218 -174zM462 -19c-209 0 -364 124 -364 321c0 193 142 304 393 319l311 19v98c0 133 -83 206 -244 206c-129 0 -219 -49 -243 -134h-174c23 173 193 287 423 287
c263 0 410 -135 410 -359v-738h-164v159h-16c-70 -115 -188 -178 -332 -178zM665 1228h-202l-282 340h198l177 -227h16l177 227h198z" />
    <glyph glyph-name="Icaron" unicode="&#x1cf;" horiz-adv-x="548" 
d="M364 0h-180v1443h180v-1443zM356 1575h-164l-300 298h202l172 -177h16l172 177h202z" />
    <glyph glyph-name="icaron" unicode="&#x1d0;" horiz-adv-x="516" 
d="M172 0v1078h172v-1078h-172zM359 1228h-202l-282 340h198l177 -227h16l177 227h198z" />
    <glyph glyph-name="Ocaron" unicode="&#x1d1;" horiz-adv-x="1579" 
d="M791 1477c410 0 660 -292 660 -755c0 -461 -248 -756 -660 -756c-414 0 -663 294 -663 756c0 464 255 755 663 755zM791 1311c-294 0 -478 -228 -478 -589c0 -358 178 -590 478 -590c296 0 475 232 475 590c0 361 -180 589 -475 589zM873 1575h-164l-300 298h202
l172 -177h16l172 177h202z" />
    <glyph glyph-name="ocaron" unicode="&#x1d2;" horiz-adv-x="1210" 
d="M605 136c204 0 319 148 319 403c0 256 -115 403 -319 403s-319 -147 -319 -403c0 -255 115 -403 319 -403zM605 -19c-307 0 -497 212 -497 558c0 347 190 558 497 558s497 -211 497 -558c0 -346 -190 -558 -497 -558zM706 1228h-202l-282 340h198l177 -227h16l177 227
h198z" />
    <glyph glyph-name="Ucaron" unicode="&#x1d3;" horiz-adv-x="1524" 
d="M369 1443v-935c0 -218 143 -376 393 -376s393 158 393 376v935h180v-947c0 -308 -215 -530 -573 -530s-573 222 -573 530v947h180zM844 1575h-164l-300 298h202l172 -177h16l172 177h202z" />
    <glyph glyph-name="ucaron" unicode="&#x1d4;" horiz-adv-x="1222" 
d="M1054 1078v-1078h-164v169h-16c-54 -120 -179 -188 -344 -188c-242 0 -378 144 -378 399v698h172v-656c0 -194 82 -284 254 -284c190 0 304 113 304 302v638h172zM710 1228h-202l-282 340h198l177 -227h16l177 227h198z" />
    <glyph glyph-name="Udieresismacron" unicode="&#x1d5;" horiz-adv-x="1524" 
d="M369 1443v-935c0 -218 143 -376 393 -376s393 158 393 376v935h180v-947c0 -308 -215 -530 -573 -530s-573 222 -573 530v947h180zM425 1932v130h674v-130h-674zM560 1575c-65 0 -117 52 -117 117s52 117 117 117s117 -52 117 -117s-52 -117 -117 -117zM964 1575
c-65 0 -117 52 -117 117s52 117 117 117s117 -52 117 -117s-52 -117 -117 -117z" />
    <glyph glyph-name="udieresismacron" unicode="&#x1d6;" horiz-adv-x="1222" 
d="M1054 1078v-1078h-164v169h-16c-54 -120 -179 -188 -344 -188c-242 0 -378 144 -378 399v698h172v-656c0 -194 82 -284 254 -284c190 0 304 113 304 302v638h172zM407 1228c-65 0 -117 52 -117 117s52 117 117 117s117 -52 117 -117s-52 -117 -117 -117zM811 1228
c-65 0 -117 52 -117 117s52 117 117 117s117 -52 117 -117s-52 -117 -117 -117zM946 1620h-674v136h674v-136z" />
    <glyph glyph-name="Udieresisacute" unicode="&#x1d7;" horiz-adv-x="1524" 
d="M369 1443v-935c0 -218 143 -376 393 -376s393 158 393 376v935h180v-947c0 -308 -215 -530 -573 -530s-573 222 -573 530v947h180zM674 1873l230 222h227l-281 -222h-176zM560 1575c-67 0 -121 54 -121 121s54 121 121 121s121 -54 121 -121s-54 -121 -121 -121z
M964 1575c-67 0 -121 54 -121 121s54 121 121 121s121 -54 121 -121s-54 -121 -121 -121z" />
    <glyph glyph-name="udieresisacute" unicode="&#x1d8;" horiz-adv-x="1222" 
d="M1054 1078v-1078h-164v169h-16c-54 -120 -179 -188 -344 -188c-242 0 -378 144 -378 399v698h172v-656c0 -194 82 -284 254 -284c190 0 304 113 304 302v638h172zM509 1575l190 298h198l-218 -298h-170zM407 1228c-67 0 -121 54 -121 121s54 121 121 121
s121 -54 121 -121s-54 -121 -121 -121zM811 1228c-67 0 -121 54 -121 121s54 121 121 121s121 -54 121 -121s-54 -121 -121 -121z" />
    <glyph glyph-name="Udieresiscaron" unicode="&#x1d9;" horiz-adv-x="1524" 
d="M369 1443v-935c0 -218 143 -376 393 -376s393 158 393 376v935h180v-947c0 -308 -215 -530 -573 -530s-573 222 -573 530v947h180zM560 1575c-65 0 -117 52 -117 117s52 117 117 117s117 -52 117 -117s-52 -117 -117 -117zM964 1575c-65 0 -117 52 -117 117
s52 117 117 117s117 -52 117 -117s-52 -117 -117 -117zM860 1862h-196l-294 233h222l162 -135h16l162 135h222z" />
    <glyph glyph-name="udieresiscaron" unicode="&#x1da;" horiz-adv-x="1222" 
d="M1054 1078v-1078h-164v169h-16c-54 -120 -179 -188 -344 -188c-242 0 -378 144 -378 399v698h172v-656c0 -194 82 -284 254 -284c190 0 304 113 304 302v638h172zM407 1228c-65 0 -117 52 -117 117s52 117 117 117s117 -52 117 -117s-52 -117 -117 -117zM811 1228
c-65 0 -117 52 -117 117s52 117 117 117s117 -52 117 -117s-52 -117 -117 -117zM710 1575h-202l-282 320h200l175 -207h16l175 207h200z" />
    <glyph glyph-name="Udieresisgrave" unicode="&#x1db;" horiz-adv-x="1524" 
d="M369 1443v-935c0 -218 143 -376 393 -376s393 158 393 376v935h180v-947c0 -308 -215 -530 -573 -530s-573 222 -573 530v947h180zM868 1873h-176l-281 222h227zM560 1575c-67 0 -121 54 -121 121s54 121 121 121s121 -54 121 -121s-54 -121 -121 -121zM964 1575
c-67 0 -121 54 -121 121s54 121 121 121s121 -54 121 -121s-54 -121 -121 -121z" />
    <glyph glyph-name="udieresisgrave" unicode="&#x1dc;" horiz-adv-x="1222" 
d="M1054 1078v-1078h-164v169h-16c-54 -120 -179 -188 -344 -188c-242 0 -378 144 -378 399v698h172v-656c0 -194 82 -284 254 -284c190 0 304 113 304 302v638h172zM709 1575h-170l-218 298h198zM407 1228c-67 0 -121 54 -121 121s54 121 121 121s121 -54 121 -121
s-54 -121 -121 -121zM811 1228c-67 0 -121 54 -121 121s54 121 121 121s121 -54 121 -121s-54 -121 -121 -121z" />
    <glyph glyph-name="Adieresismacron" unicode="&#x1de;" horiz-adv-x="1380" 
d="M1122 0l-145 413h-574l-145 -413h-189l532 1443h178l532 -1443h-189zM682 1210l-226 -644h468l-226 644h-16zM353 1932v130h674v-130h-674zM488 1575c-65 0 -117 52 -117 117s52 117 117 117s117 -52 117 -117s-52 -117 -117 -117zM892 1575c-65 0 -117 52 -117 117
s52 117 117 117s117 -52 117 -117s-52 -117 -117 -117z" />
    <glyph glyph-name="adieresismacron" unicode="&#x1df;" horiz-adv-x="1130" 
d="M494 132c177 0 308 116 308 270v99l-290 -19c-164 -11 -236 -68 -236 -176c0 -110 93 -174 218 -174zM462 -19c-209 0 -364 124 -364 321c0 193 142 304 393 319l311 19v98c0 133 -83 206 -244 206c-129 0 -219 -49 -243 -134h-174c23 173 193 287 423 287
c263 0 410 -135 410 -359v-738h-164v159h-16c-70 -115 -188 -178 -332 -178zM362 1228c-65 0 -117 52 -117 117s52 117 117 117s117 -52 117 -117s-52 -117 -117 -117zM766 1228c-65 0 -117 52 -117 117s52 117 117 117s117 -52 117 -117s-52 -117 -117 -117zM901 1620h-674
v136h674v-136z" />
    <glyph glyph-name="Adotmacron" unicode="&#x1e0;" horiz-adv-x="1380" 
d="M1122 0l-145 413h-574l-145 -413h-189l532 1443h178l532 -1443h-189zM682 1210l-226 -644h468l-226 644h-16zM690 1577c-66 0 -119 53 -119 119s53 119 119 119s119 -53 119 -119s-53 -119 -119 -119zM1027 1932h-674v130h674v-130z" />
    <glyph glyph-name="adotmacron" unicode="&#x1e1;" horiz-adv-x="1130" 
d="M494 132c177 0 308 116 308 270v99l-290 -19c-164 -11 -236 -68 -236 -176c0 -110 93 -174 218 -174zM462 -19c-209 0 -364 124 -364 321c0 193 142 304 393 319l311 19v98c0 133 -83 206 -244 206c-129 0 -219 -49 -243 -134h-174c23 173 193 287 423 287
c263 0 410 -135 410 -359v-738h-164v159h-16c-70 -115 -188 -178 -332 -178zM564 1228c-67 0 -119 52 -119 119s52 119 119 119s119 -52 119 -119s-52 -119 -119 -119zM901 1620h-674v136h674v-136z" />
    <glyph glyph-name="AEmacron" unicode="&#x1e2;" horiz-adv-x="1966" 
d="M986 1292h-147l-310 -680h457v680zM986 0v459h-527l-209 -459h-181l651 1443h1104v-162h-658v-473h621v-160h-621v-486h658v-162h-838zM1776 1620h-674v136h674v-136z" />
    <glyph glyph-name="aemacron" unicode="&#x1e3;" horiz-adv-x="1849" 
d="M1287 -19c-173 0 -329 97 -386 231h-16c-70 -144 -214 -231 -406 -231c-226 0 -381 124 -381 321c0 193 142 304 393 319l311 19v98c0 133 -83 206 -244 206c-129 0 -219 -49 -243 -134h-174c23 173 192 287 423 287c171 0 293 -78 348 -185h16c63 106 202 185 357 185
c285 0 456 -198 456 -529v-68h-768v-18c9 -212 133 -348 318 -348c134 0 217 46 264 145h172c-54 -190 -213 -298 -440 -298zM1276 946c-174 0 -290 -118 -303 -307h587c-4 180 -122 307 -284 307zM504 132c172 0 298 124 298 278v91l-290 -19c-164 -11 -236 -68 -236 -176
c0 -110 93 -174 228 -174zM1276 1286h-674v136h674v-136z" />
    <glyph glyph-name="Gcaron" unicode="&#x1e6;" horiz-adv-x="1529" 
d="M1395 558c0 -356 -244 -592 -613 -592c-399 0 -654 294 -654 756c0 456 259 755 654 755c320 0 552 -178 604 -464h-183c-62 195 -207 298 -421 298c-286 0 -469 -230 -469 -589c0 -364 180 -590 470 -590c258 0 433 165 433 409v35h-406v158h585v-176zM864 1575h-164
l-300 298h202l172 -177h16l172 177h202z" />
    <glyph glyph-name="gcaron" unicode="&#x1e7;" horiz-adv-x="1248" 
d="M918 555c0 235 -121 387 -320 387c-200 0 -312 -152 -312 -387s112 -387 312 -387s320 152 320 387zM606 -414c-260 0 -426 117 -452 295h182c19 -88 115 -145 270 -145c193 0 308 95 308 254v212h-16c-68 -119 -190 -186 -338 -186c-279 0 -452 216 -452 539
s175 542 452 542c151 0 284 -74 346 -190h16v171h164v-1097c0 -241 -186 -395 -480 -395zM695 1228h-202l-282 340h198l177 -227h16l177 227h198z" />
    <glyph glyph-name="Kcaron" unicode="&#x1e8;" horiz-adv-x="1349" 
d="M364 0h-180v1443h180v-701h16l632 701h226l-577 -623l630 -820h-233l-521 695l-173 -191v-504zM735 1575h-164l-300 298h202l172 -177h16l172 177h202z" />
    <glyph glyph-name="kcaron" unicode="&#x1e9;" horiz-adv-x="1112" 
d="M360 607l468 471h211l-464 -462l495 -616h-219l-404 505l-103 -96v-409h-172v1506h172v-899h16zM340 1638h-164l-300 298h202l172 -177h16l172 177h202z" />
    <glyph glyph-name="Oogonek" unicode="&#x1ea;" horiz-adv-x="1579" 
d="M1039 -432c-127 0 -219 87 -219 207c0 73 35 143 98 196v16c-45 -14 -85 -21 -127 -21c-410 0 -663 289 -663 756c0 464 255 755 663 755c407 0 660 -289 660 -755c0 -652 -474 -668 -474 -912c0 -61 49 -108 112 -108c30 0 52 3 78 9v-123c-24 -13 -69 -20 -128 -20z
M791 1311c-293 0 -478 -227 -478 -589c0 -364 183 -590 478 -590c292 0 475 227 475 590s-182 589 -475 589z" />
    <glyph glyph-name="oogonek" unicode="&#x1eb;" horiz-adv-x="1210" 
d="M798 -432c-133 0 -223 79 -223 194c0 71 36 148 98 209v16c-25 -4 -46 -6 -71 -6c-305 0 -494 214 -494 559s189 557 497 557c307 0 497 -212 497 -556c0 -192 -57 -335 -185 -463c-153 -156 -185 -204 -185 -280c0 -57 47 -96 115 -96c26 0 55 3 75 9v-123
c-32 -12 -82 -20 -124 -20zM605 136c203 0 319 147 319 403c0 257 -116 403 -319 403s-319 -146 -319 -403c0 -256 116 -403 319 -403z" />
    <glyph glyph-name="Oogonekmacron" unicode="&#x1ec;" horiz-adv-x="1579" 
d="M1039 -432c-127 0 -219 87 -219 207c0 73 35 143 98 196v16c-45 -14 -85 -21 -127 -21c-410 0 -663 289 -663 756c0 464 255 755 663 755c407 0 660 -289 660 -755c0 -652 -474 -668 -474 -912c0 -61 49 -108 112 -108c30 0 52 3 78 9v-123c-24 -13 -69 -20 -128 -20z
M791 1311c-293 0 -478 -227 -478 -589c0 -364 183 -590 478 -590c292 0 475 227 475 590s-182 589 -475 589zM1128 1620h-674v136h674v-136z" />
    <glyph glyph-name="oogonekmacron" unicode="&#x1ed;" horiz-adv-x="1210" 
d="M798 -432c-133 0 -223 79 -223 194c0 71 36 148 98 209v16c-25 -4 -46 -6 -71 -6c-305 0 -494 214 -494 559s189 557 497 557c307 0 497 -212 497 -556c0 -192 -57 -335 -185 -463c-153 -156 -185 -204 -185 -280c0 -57 47 -96 115 -96c26 0 55 3 75 9v-123
c-32 -12 -82 -20 -124 -20zM605 136c203 0 319 147 319 403c0 257 -116 403 -319 403s-319 -146 -319 -403c0 -256 116 -403 319 -403zM942 1286h-674v136h674v-136z" />
    <glyph glyph-name="u01F1" unicode="&#x1f1;" horiz-adv-x="2842" 
d="M184 1443h495c428 0 681 -267 681 -721c0 -455 -252 -722 -681 -722h-495v1443zM364 1281v-1119h303c322 0 509 206 509 558c0 353 -189 561 -509 561h-303zM1631 0v128l817 1137v16h-789v162h1022v-128l-813 -1137v-16h830v-162h-1067z" />
    <glyph glyph-name="u01F2" unicode="&#x1f2;" horiz-adv-x="2591" 
d="M184 1443h495c428 0 681 -267 681 -721c0 -455 -252 -722 -681 -722h-495v1443zM364 1281v-1119h303c322 0 509 206 509 558c0 353 -189 561 -509 561h-303zM1624 0v126l622 792v16h-621v144h826v-129l-619 -789v-16h622v-144h-830z" />
    <glyph glyph-name="u01F3" unicode="&#x1f3;" horiz-adv-x="2362" 
d="M561 -19c-276 0 -453 219 -453 558c0 338 179 558 453 558c150 0 277 -71 338 -189h15v598h172v-1506h-164v172h-16c-68 -120 -196 -191 -345 -191zM601 942c-196 0 -315 -152 -315 -403c0 -252 118 -403 315 -403c196 0 317 154 317 403c0 247 -122 403 -317 403z
M1395 0v126l622 792v16h-621v144h826v-129l-619 -789v-16h622v-144h-830z" />
    <glyph glyph-name="Gacute" unicode="&#x1f4;" horiz-adv-x="1529" 
d="M1395 558c0 -356 -244 -592 -613 -592c-399 0 -654 294 -654 756c0 456 259 755 654 755c320 0 552 -178 604 -464h-183c-62 195 -207 298 -421 298c-286 0 -469 -230 -469 -589c0 -364 180 -590 470 -590c258 0 433 165 433 409v35h-406v158h585v-176zM676 1575l310 298
h226l-332 -298h-204z" />
    <glyph glyph-name="gacute" unicode="&#x1f5;" horiz-adv-x="1248" 
d="M918 555c0 235 -121 387 -320 387c-200 0 -312 -152 -312 -387s112 -387 312 -387s320 152 320 387zM606 -414c-260 0 -426 117 -452 295h182c19 -88 115 -145 270 -145c193 0 308 95 308 254v212h-16c-68 -119 -190 -186 -338 -186c-279 0 -452 216 -452 539
s175 542 452 542c151 0 284 -74 346 -190h16v171h164v-1097c0 -241 -186 -395 -480 -395zM480 1263l252 338h220l-278 -338h-194z" />
    <glyph glyph-name="Ngrave" unicode="&#x1f8;" horiz-adv-x="1520" 
d="M362 0h-178v1443h175l783 -1123h16v1123h178v-1443h-175l-783 1119h-16v-1119zM548 1873l310 -298h-204l-332 298h226z" />
    <glyph glyph-name="ngrave" unicode="&#x1f9;" horiz-adv-x="1215" 
d="M162 0v1078h164v-170h16c54 119 179 189 344 189c242 0 377 -143 377 -399v-698h-172v656c0 194 -82 286 -254 286c-189 0 -303 -115 -303 -304v-638h-172zM749 1263h-194l-278 338h220z" />
    <glyph glyph-name="Aringacute" unicode="&#x1fa;" horiz-adv-x="1380" 
d="M1122 0l-145 413h-574l-145 -413h-189l532 1443h178l532 -1443h-189zM682 1210l-226 -644h468l-226 644h-16zM590 1730c0 -57 43 -102 100 -102s100 45 100 102s-43 102 -100 102s-100 -45 -100 -102zM690 1533c-111 0 -202 87 -202 198s91 198 202 198s202 -87 202 -198
s-91 -198 -202 -198zM760 2173h187l-174 -181h-161z" />
    <glyph glyph-name="aringacute" unicode="&#x1fb;" horiz-adv-x="1130" 
d="M494 132c177 0 308 116 308 270v99l-290 -19c-164 -11 -236 -68 -236 -176c0 -110 93 -174 218 -174zM462 -19c-209 0 -364 124 -364 321c0 193 142 304 393 319l311 19v98c0 133 -83 206 -244 206c-129 0 -219 -49 -243 -134h-174c23 173 193 287 423 287
c263 0 410 -135 410 -359v-738h-164v159h-16c-70 -115 -188 -178 -332 -178zM564 1200c-112 0 -202 88 -202 198s90 198 202 198s202 -88 202 -198s-90 -198 -202 -198zM464 1397c0 -58 44 -102 100 -102s100 44 100 102s-44 102 -100 102s-100 -44 -100 -102zM479 1683
l166 226h199l-194 -226h-171z" />
    <glyph glyph-name="AEacute" unicode="&#x1fc;" horiz-adv-x="1966" 
d="M986 1292h-147l-310 -680h457v680zM986 0v459h-527l-209 -459h-181l651 1443h1104v-162h-658v-473h621v-160h-621v-486h658v-162h-838zM1333 1575l310 298h226l-332 -298h-204z" />
    <glyph glyph-name="aeacute" unicode="&#x1fd;" horiz-adv-x="1849" 
d="M1287 -19c-173 0 -329 97 -386 231h-16c-70 -144 -214 -231 -406 -231c-226 0 -381 124 -381 321c0 193 142 304 393 319l311 19v98c0 133 -83 206 -244 206c-129 0 -219 -49 -243 -134h-174c23 173 192 287 423 287c171 0 293 -78 348 -185h16c63 106 202 185 357 185
c285 0 456 -198 456 -529v-68h-768v-18c9 -212 133 -348 318 -348c134 0 217 46 264 145h172c-54 -190 -213 -298 -440 -298zM1276 946c-174 0 -290 -118 -303 -307h587c-4 180 -122 307 -284 307zM504 132c172 0 298 124 298 278v91l-290 -19c-164 -11 -236 -68 -236 -176
c0 -110 93 -174 228 -174zM825 1263l252 338h220l-278 -338h-194z" />
    <glyph glyph-name="Oslashacute" unicode="&#x1fe;" horiz-adv-x="1551" 
d="M1206 1873l-332 -298h-204l310 298h226zM1158 1127l-675 -881c78 -73 183 -114 308 -114c296 0 475 232 475 590c0 166 -38 304 -108 405zM403 346l672 871c-76 61 -172 94 -284 94c-294 0 -478 -228 -478 -589c0 -150 31 -278 90 -376zM1382 1419l-110 -143
c116 -131 179 -321 179 -554c0 -461 -248 -756 -660 -756c-168 0 -309 49 -418 137l-115 -150l-100 76l127 165c-102 130 -157 310 -157 528c0 464 255 755 663 755c155 0 288 -42 392 -119l101 130z" />
    <glyph glyph-name="oslashacute" unicode="&#x1ff;" horiz-adv-x="1210" 
d="M939 1601l-278 -338h-194l252 338h220zM856 815l-427 -629c48 -33 107 -50 176 -50c204 0 319 148 319 403c0 115 -23 209 -68 276zM344 280l425 620c-46 28 -100 42 -164 42c-204 0 -319 -147 -319 -403c0 -106 20 -193 58 -259zM1018 1054l-62 -92
c94 -96 146 -241 146 -423c0 -346 -190 -558 -497 -558c-103 0 -194 24 -268 69l-59 -87l-104 69l67 98c-86 97 -133 236 -133 409c0 347 190 558 497 558c98 0 184 -22 256 -62l57 83z" />
    <glyph glyph-name="Adblgrave" unicode="&#x200;" horiz-adv-x="1380" 
d="M1122 0l-145 413h-574l-145 -413h-189l532 1443h178l532 -1443h-189zM682 1210l-226 -644h468l-226 644h-16zM600 1575h-204l-332 298h226zM1014 1575h-204l-332 298h226z" />
    <glyph glyph-name="adblgrave" unicode="&#x201;" horiz-adv-x="1130" 
d="M494 132c177 0 308 116 308 270v99l-290 -19c-164 -11 -236 -68 -236 -176c0 -110 93 -174 218 -174zM462 -19c-209 0 -364 124 -364 321c0 193 142 304 393 319l311 19v98c0 133 -83 206 -244 206c-129 0 -219 -49 -243 -134h-174c23 173 193 287 423 287
c263 0 410 -135 410 -359v-738h-164v159h-16c-70 -115 -188 -178 -332 -178zM483 1263h-182l-280 338h210zM883 1263h-182l-280 338h210z" />
    <glyph glyph-name="Ainvertedbreve" unicode="&#x202;" horiz-adv-x="1380" 
d="M1122 0l-145 413h-574l-145 -413h-189l532 1443h178l532 -1443h-189zM682 1210l-226 -644h468l-226 644h-16zM326 1575c0 179 138 298 364 298s364 -119 364 -298h-154c0 105 -80 173 -210 173s-210 -68 -210 -173h-154z" />
    <glyph glyph-name="ainvertedbreve" unicode="&#x203;" horiz-adv-x="1130" 
d="M494 132c177 0 308 116 308 270v99l-290 -19c-164 -11 -236 -68 -236 -176c0 -110 93 -174 218 -174zM462 -19c-209 0 -364 124 -364 321c0 193 142 304 393 319l311 19v98c0 133 -83 206 -244 206c-129 0 -219 -49 -243 -134h-174c23 173 193 287 423 287
c263 0 410 -135 410 -359v-738h-164v159h-16c-70 -115 -188 -178 -332 -178zM200 1228c0 189 136 328 364 328s364 -139 364 -328h-154c0 115 -74 200 -210 200s-210 -85 -210 -200h-154z" />
    <glyph glyph-name="Edblgrave" unicode="&#x204;" horiz-adv-x="1220" 
d="M1078 162v-162h-894v1443h894v-162h-714v-463h677v-160h-677v-496h714zM541 1575h-204l-332 298h226zM955 1575h-204l-332 298h226z" />
    <glyph glyph-name="edblgrave" unicode="&#x205;" horiz-adv-x="1170" 
d="M592 945c-172 0 -292 -126 -305 -317h594c-4 191 -118 317 -289 317zM876 279h172c-52 -185 -218 -298 -454 -298c-299 0 -486 216 -486 557c0 339 190 559 486 559c291 0 468 -207 468 -542v-66h-775v-8c9 -213 128 -348 311 -348c139 0 233 51 278 146zM513 1263h-182
l-280 338h210zM913 1263h-182l-280 338h210z" />
    <glyph glyph-name="Einvertedbreve" unicode="&#x206;" horiz-adv-x="1220" 
d="M1078 162v-162h-894v1443h894v-162h-714v-463h677v-160h-677v-496h714zM267 1575c0 179 138 298 364 298s364 -119 364 -298h-154c0 105 -80 173 -210 173s-210 -68 -210 -173h-154z" />
    <glyph glyph-name="einvertedbreve" unicode="&#x207;" horiz-adv-x="1170" 
d="M592 945c-172 0 -292 -126 -305 -317h594c-4 191 -118 317 -289 317zM876 279h172c-52 -185 -218 -298 -454 -298c-299 0 -486 216 -486 557c0 339 190 559 486 559c291 0 468 -207 468 -542v-66h-775v-8c9 -213 128 -348 311 -348c139 0 233 51 278 146zM230 1228
c0 189 136 328 364 328s364 -139 364 -328h-154c0 115 -74 200 -210 200s-210 -85 -210 -200h-154z" />
    <glyph glyph-name="Idblgrave" unicode="&#x208;" horiz-adv-x="548" 
d="M364 0h-180v1443h180v-1443zM184 1575h-204l-332 298h226zM598 1575h-204l-332 298h226z" />
    <glyph glyph-name="idblgrave" unicode="&#x209;" horiz-adv-x="516" 
d="M172 0v1078h172v-1078h-172zM177 1263h-182l-280 338h210zM577 1263h-182l-280 338h210z" />
    <glyph glyph-name="Iinvertedbreve" unicode="&#x20a;" horiz-adv-x="548" 
d="M364 0h-180v1443h180v-1443zM-90 1575c0 179 138 298 364 298s364 -119 364 -298h-154c0 105 -80 173 -210 173s-210 -68 -210 -173h-154z" />
    <glyph glyph-name="iinvertedbreve" unicode="&#x20b;" horiz-adv-x="516" 
d="M172 0v1078h172v-1078h-172zM-106 1228c0 189 136 328 364 328s364 -139 364 -328h-154c0 115 -74 200 -210 200s-210 -85 -210 -200h-154z" />
    <glyph glyph-name="Odblgrave" unicode="&#x20c;" horiz-adv-x="1579" 
d="M791 1477c410 0 660 -292 660 -755c0 -461 -248 -756 -660 -756c-414 0 -663 294 -663 756c0 464 255 755 663 755zM791 1311c-294 0 -478 -228 -478 -589c0 -358 178 -590 478 -590c296 0 475 232 475 590c0 361 -180 589 -475 589zM701 1575h-204l-332 298h226z
M1115 1575h-204l-332 298h226z" />
    <glyph glyph-name="odblgrave" unicode="&#x20d;" horiz-adv-x="1210" 
d="M605 136c204 0 319 148 319 403c0 256 -115 403 -319 403s-319 -147 -319 -403c0 -255 115 -403 319 -403zM605 -19c-307 0 -497 212 -497 558c0 347 190 558 497 558s497 -211 497 -558c0 -346 -190 -558 -497 -558zM524 1263h-182l-280 338h210zM924 1263h-182
l-280 338h210z" />
    <glyph glyph-name="Oinvertedbreve" unicode="&#x20e;" horiz-adv-x="1579" 
d="M791 1477c410 0 660 -292 660 -755c0 -461 -248 -756 -660 -756c-414 0 -663 294 -663 756c0 464 255 755 663 755zM791 1311c-294 0 -478 -228 -478 -589c0 -358 178 -590 478 -590c296 0 475 232 475 590c0 361 -180 589 -475 589zM427 1575c0 179 138 298 364 298
s364 -119 364 -298h-154c0 105 -80 173 -210 173s-210 -68 -210 -173h-154z" />
    <glyph glyph-name="oinvertedbreve" unicode="&#x20f;" horiz-adv-x="1210" 
d="M605 136c204 0 319 148 319 403c0 256 -115 403 -319 403s-319 -147 -319 -403c0 -255 115 -403 319 -403zM605 -19c-307 0 -497 212 -497 558c0 347 190 558 497 558s497 -211 497 -558c0 -346 -190 -558 -497 -558zM241 1228c0 189 136 328 364 328s364 -139 364 -328
h-154c0 115 -74 200 -210 200s-210 -85 -210 -200h-154z" />
    <glyph glyph-name="Rdblgrave" unicode="&#x210;" horiz-adv-x="1338" 
d="M364 1283v-552h355c185 0 290 99 290 276c0 173 -112 276 -298 276h-347zM364 571v-571h-180v1443h551c278 0 460 -170 460 -430c0 -201 -109 -357 -290 -414l334 -599h-211l-309 571h-355zM519 1575h-204l-332 298h226zM933 1575h-204l-332 298h226z" />
    <glyph glyph-name="rdblgrave" unicode="&#x211;" horiz-adv-x="765" 
d="M162 0v1078h164v-160h16c32 105 156 179 299 179c28 0 64 -2 86 -5v-172c-14 4 -76 10 -110 10c-164 0 -283 -110 -283 -262v-668h-172zM297 1263h-182l-280 338h210zM697 1263h-182l-280 338h210z" />
    <glyph glyph-name="Rinvertedbreve" unicode="&#x212;" horiz-adv-x="1338" 
d="M364 1283v-552h355c185 0 290 99 290 276c0 173 -112 276 -298 276h-347zM364 571v-571h-180v1443h551c278 0 460 -170 460 -430c0 -201 -109 -357 -290 -414l334 -599h-211l-309 571h-355zM245 1575c0 179 138 298 364 298s364 -119 364 -298h-154
c0 105 -80 173 -210 173s-210 -68 -210 -173h-154z" />
    <glyph glyph-name="rinvertedbreve" unicode="&#x213;" horiz-adv-x="765" 
d="M162 0v1078h164v-160h16c32 105 156 179 299 179c28 0 64 -2 86 -5v-172c-14 4 -76 10 -110 10c-164 0 -283 -110 -283 -262v-668h-172zM14 1228c0 189 136 328 364 328s364 -139 364 -328h-154c0 115 -74 200 -210 200s-210 -85 -210 -200h-154z" />
    <glyph glyph-name="Udblgrave" unicode="&#x214;" horiz-adv-x="1524" 
d="M369 1443v-935c0 -218 143 -376 393 -376s393 158 393 376v935h180v-947c0 -308 -215 -530 -573 -530s-573 222 -573 530v947h180zM672 1575h-204l-332 298h226zM1086 1575h-204l-332 298h226z" />
    <glyph glyph-name="udblgrave" unicode="&#x215;" horiz-adv-x="1222" 
d="M1054 1078v-1078h-164v169h-16c-54 -120 -179 -188 -344 -188c-242 0 -378 144 -378 399v698h172v-656c0 -194 82 -284 254 -284c190 0 304 113 304 302v638h172zM528 1263h-182l-280 338h210zM928 1263h-182l-280 338h210z" />
    <glyph glyph-name="Uinvertedbreve" unicode="&#x216;" horiz-adv-x="1524" 
d="M369 1443v-935c0 -218 143 -376 393 -376s393 158 393 376v935h180v-947c0 -308 -215 -530 -573 -530s-573 222 -573 530v947h180zM398 1575c0 179 138 298 364 298s364 -119 364 -298h-154c0 105 -80 173 -210 173s-210 -68 -210 -173h-154z" />
    <glyph glyph-name="uinvertedbreve" unicode="&#x217;" horiz-adv-x="1222" 
d="M1054 1078v-1078h-164v169h-16c-54 -120 -179 -188 -344 -188c-242 0 -378 144 -378 399v698h172v-656c0 -194 82 -284 254 -284c190 0 304 113 304 302v638h172zM245 1228c0 189 136 328 364 328s364 -139 364 -328h-154c0 115 -74 200 -210 200s-210 -85 -210 -200
h-154z" />
    <glyph glyph-name="Scommaaccent" unicode="&#x218;" horiz-adv-x="1305" 
d="M115 377h182c22 -151 166 -247 371 -247c194 0 337 105 337 248c0 123 -90 201 -289 251l-185 48c-261 66 -374 184 -374 389c0 245 205 411 510 411c279 0 487 -166 502 -399h-181c-25 148 -147 236 -327 236c-192 0 -319 -96 -319 -242c0 -113 79 -178 278 -229
l151 -40c299 -75 419 -191 419 -403c0 -265 -209 -434 -539 -434c-306 0 -517 162 -536 411zM654 -518h-167l102 377h182z" />
    <glyph glyph-name="scommaaccent" unicode="&#x219;" horiz-adv-x="1072" 
d="M137 783c0 179 173 314 402 314c226 0 383 -112 406 -289h-170c-23 86 -107 143 -237 143c-128 0 -228 -65 -228 -161c0 -74 60 -120 187 -151l166 -40c203 -49 301 -137 301 -292c0 -193 -187 -326 -432 -326c-240 0 -405 115 -424 294h177c29 -91 115 -149 253 -149
c145 0 249 69 249 168c0 74 -56 124 -171 152l-185 45c-202 49 -294 136 -294 292zM535 -518h-167l102 377h182z" />
    <glyph glyph-name="Tcommaaccent" unicode="&#x21a;" horiz-adv-x="1298" 
d="M739 0h-180v1281h-465v162h1110v-162h-465v-1281zM652 -518h-167l102 377h182z" />
    <glyph glyph-name="tcommaaccent" unicode="&#x21b;" horiz-adv-x="744" 
d="M234 1347h172v-269h250v-144h-250v-610c0 -127 48 -181 160 -181c31 0 46 1 78 4v-145c-34 -6 -65 -10 -99 -10c-222 0 -311 82 -311 288v654h-181v144h181v269zM419 -518h-167l102 377h182z" />
    <glyph glyph-name="Hcaron" unicode="&#x21e;" horiz-adv-x="1520" 
d="M1336 0h-180v657h-792v-657h-180v1443h180v-624h792v624h180v-1443zM842 1575h-164l-300 298h202l172 -177h16l172 177h202z" />
    <glyph glyph-name="hcaron" unicode="&#x21f;" horiz-adv-x="1236" 
d="M172 0v1506h172v-598h16c54 119 177 189 342 189c245 0 382 -146 382 -399v-698h-172v656c0 191 -84 286 -259 286c-193 0 -309 -122 -309 -304v-638h-172zM340 1638h-164l-300 298h202l172 -177h16l172 177h202z" />
    <glyph glyph-name="Adotaccent" unicode="&#x226;" horiz-adv-x="1380" 
d="M1122 0l-145 413h-574l-145 -413h-189l532 1443h178l532 -1443h-189zM682 1210l-226 -644h468l-226 644h-16zM690 1575c-67 0 -121 54 -121 121s54 121 121 121s121 -54 121 -121s-54 -121 -121 -121z" />
    <glyph glyph-name="adotaccent" unicode="&#x227;" horiz-adv-x="1130" 
d="M494 132c177 0 308 116 308 270v99l-290 -19c-164 -11 -236 -68 -236 -176c0 -110 93 -174 218 -174zM462 -19c-209 0 -364 124 -364 321c0 193 142 304 393 319l311 19v98c0 133 -83 206 -244 206c-129 0 -219 -49 -243 -134h-174c23 173 193 287 423 287
c263 0 410 -135 410 -359v-738h-164v159h-16c-70 -115 -188 -178 -332 -178zM564 1287c-70 0 -128 58 -128 128s58 127 128 127s128 -57 128 -127s-58 -128 -128 -128z" />
    <glyph glyph-name="Ecedilla" unicode="&#x228;" horiz-adv-x="1220" 
d="M1078 1281h-714v-463h677v-160h-677v-496h714v-162h-363l-55 -142c136 0 215 -60 215 -163c0 -111 -91 -189 -244 -189c-59 0 -105 6 -146 18v108c24 -7 86 -14 122 -14c77 0 119 26 119 73c0 46 -43 65 -149 65h-59v84l63 160h-397v1443h894v-162z" />
    <glyph glyph-name="ecedilla" unicode="&#x229;" horiz-adv-x="1170" 
d="M287 628h594c-4 191 -118 317 -289 317c-172 0 -292 -126 -305 -317zM1062 489h-775v-8c9 -213 128 -348 311 -348c139 0 233 51 278 146h172c-46 -163 -181 -271 -375 -293l-49 -128c136 0 215 -60 215 -163c0 -111 -91 -189 -244 -189c-59 0 -105 6 -146 18v108
c24 -7 86 -14 122 -14c77 0 119 26 119 73c0 46 -43 65 -149 65h-59v84l57 144c-267 25 -431 235 -431 554c0 339 190 559 486 559c291 0 468 -207 468 -542v-66z" />
    <glyph glyph-name="Odieresismacron" unicode="&#x22a;" horiz-adv-x="1579" 
d="M791 1477c410 0 660 -292 660 -755c0 -461 -248 -756 -660 -756c-414 0 -663 294 -663 756c0 464 255 755 663 755zM791 1311c-294 0 -478 -228 -478 -589c0 -358 178 -590 478 -590c296 0 475 232 475 590c0 361 -180 589 -475 589zM454 1932v130h674v-130h-674z
M589 1575c-65 0 -117 52 -117 117s52 117 117 117s117 -52 117 -117s-52 -117 -117 -117zM993 1575c-65 0 -117 52 -117 117s52 117 117 117s117 -52 117 -117s-52 -117 -117 -117z" />
    <glyph glyph-name="odieresismacron" unicode="&#x22b;" horiz-adv-x="1210" 
d="M605 136c204 0 319 148 319 403c0 256 -115 403 -319 403s-319 -147 -319 -403c0 -255 115 -403 319 -403zM605 -19c-307 0 -497 212 -497 558c0 347 190 558 497 558s497 -211 497 -558c0 -346 -190 -558 -497 -558zM403 1228c-65 0 -117 52 -117 117s52 117 117 117
s117 -52 117 -117s-52 -117 -117 -117zM807 1228c-65 0 -117 52 -117 117s52 117 117 117s117 -52 117 -117s-52 -117 -117 -117zM942 1620h-674v136h674v-136z" />
    <glyph glyph-name="Otildemacron" unicode="&#x22c;" horiz-adv-x="1579" 
d="M791 1477c410 0 660 -292 660 -755c0 -461 -248 -756 -660 -756c-414 0 -663 294 -663 756c0 464 255 755 663 755zM791 1311c-294 0 -478 -228 -478 -589c0 -358 178 -590 478 -590c296 0 475 232 475 590c0 361 -180 589 -475 589zM1128 1932h-674v130h674v-130z
M931 1575c-170 0 -168 128 -276 128c-57 0 -90 -38 -94 -111h-136c0 141 92 241 226 241c170 0 168 -128 276 -128c48 0 89 33 95 111h135c0 -133 -92 -241 -226 -241z" />
    <glyph glyph-name="otildemacron" unicode="&#x22d;" horiz-adv-x="1210" 
d="M605 136c204 0 319 148 319 403c0 256 -115 403 -319 403s-319 -147 -319 -403c0 -255 115 -403 319 -403zM605 -19c-307 0 -497 212 -497 558c0 347 190 558 497 558s497 -211 497 -558c0 -346 -190 -558 -497 -558zM467 1388c-70 0 -98 -44 -98 -157h-142
c0 182 87 291 232 291c160 0 204 -157 284 -157c70 0 98 44 98 157h142c0 -182 -87 -291 -232 -291c-160 0 -204 157 -284 157zM942 1626h-674v136h674v-136z" />
    <glyph glyph-name="Odotaccent" unicode="&#x22e;" horiz-adv-x="1579" 
d="M791 1477c410 0 660 -292 660 -755c0 -461 -248 -756 -660 -756c-414 0 -663 294 -663 756c0 464 255 755 663 755zM791 1311c-294 0 -478 -228 -478 -589c0 -358 178 -590 478 -590c296 0 475 232 475 590c0 361 -180 589 -475 589zM791 1575c-67 0 -121 54 -121 121
s54 121 121 121s121 -54 121 -121s-54 -121 -121 -121z" />
    <glyph glyph-name="odotaccent" unicode="&#x22f;" horiz-adv-x="1210" 
d="M605 136c204 0 319 148 319 403c0 256 -115 403 -319 403s-319 -147 -319 -403c0 -255 115 -403 319 -403zM605 -19c-307 0 -497 212 -497 558c0 347 190 558 497 558s497 -211 497 -558c0 -346 -190 -558 -497 -558zM605 1287c-70 0 -128 58 -128 128s58 127 128 127
s128 -57 128 -127s-58 -128 -128 -128z" />
    <glyph glyph-name="Odotaccentmacron" unicode="&#x230;" horiz-adv-x="1579" 
d="M791 1477c410 0 660 -292 660 -755c0 -461 -248 -756 -660 -756c-414 0 -663 294 -663 756c0 464 255 755 663 755zM791 1311c-294 0 -478 -228 -478 -589c0 -358 178 -590 478 -590c296 0 475 232 475 590c0 361 -180 589 -475 589zM791 1577c-66 0 -119 53 -119 119
s53 119 119 119s119 -53 119 -119s-53 -119 -119 -119zM1128 1932h-674v130h674v-130z" />
    <glyph glyph-name="odotaccentmacron" unicode="&#x231;" horiz-adv-x="1210" 
d="M605 136c204 0 319 148 319 403c0 256 -115 403 -319 403s-319 -147 -319 -403c0 -255 115 -403 319 -403zM605 -19c-307 0 -497 212 -497 558c0 347 190 558 497 558s497 -211 497 -558c0 -346 -190 -558 -497 -558zM605 1228c-67 0 -119 52 -119 119s52 119 119 119
s119 -52 119 -119s-52 -119 -119 -119zM942 1620h-674v136h674v-136z" />
    <glyph glyph-name="Ymacron" unicode="&#x232;" horiz-adv-x="1344" 
d="M762 0h-180v621l-512 822h205l389 -641h16l389 641h205l-512 -822v-621zM1009 1620h-674v136h674v-136z" />
    <glyph glyph-name="ymacron" unicode="&#x233;" horiz-adv-x="1112" 
d="M254 -391c-23 0 -53 2 -77 6v147c21 -4 48 -5 72 -5c99 0 153 48 198 178l20 64l-399 1079h186l296 -887h16l295 887h183l-421 -1144c-92 -250 -178 -325 -369 -325zM888 1286h-674v136h674v-136z" />
    <glyph glyph-name="dotlessj" unicode="&#x237;" horiz-adv-x="504" 
d="M338 1078v-1159c0 -222 -104 -317 -330 -317h-30v147h26c122 0 162 48 162 167v1162h172z" />
    <glyph glyph-name="circumflex" unicode="&#x2c6;" horiz-adv-x="1094" 
d="M648 1568l282 -340h-198l-177 227h-16l-177 -227h-198l282 340h202z" />
    <glyph glyph-name="caron" unicode="&#x2c7;" horiz-adv-x="1094" 
d="M648 1228h-202l-282 340h198l177 -227h16l177 227h198z" />
    <glyph glyph-name="breve" unicode="&#x2d8;" horiz-adv-x="1048" 
d="M160 1556h154c0 -115 74 -200 210 -200s210 85 210 200h154c0 -189 -136 -328 -364 -328s-364 139 -364 328z" />
    <glyph glyph-name="dotaccent" unicode="&#x2d9;" horiz-adv-x="1048" 
d="M524 1287c-70 0 -128 58 -128 128s58 127 128 127s128 -57 128 -127s-58 -128 -128 -128z" />
    <glyph glyph-name="ring" unicode="&#x2da;" horiz-adv-x="1094" 
d="M547 1228c-128 0 -232 100 -232 229s104 229 232 229s232 -100 232 -229s-104 -229 -232 -229zM547 1334c70 0 122 53 122 123s-52 123 -122 123s-122 -53 -122 -123s52 -123 122 -123z" />
    <glyph glyph-name="ogonek" unicode="&#x2db;" horiz-adv-x="1048" 
d="M702 -289v-123c-24 -13 -70 -20 -128 -20c-130 0 -219 80 -219 197c0 108 62 215 179 310l118 -25c-83 -67 -140 -165 -140 -240c0 -67 40 -108 106 -108c32 0 60 3 84 9z" />
    <glyph glyph-name="tilde" unicode="&#x2dc;" horiz-adv-x="1093" 
d="M408 1420c-70 0 -98 -44 -98 -157h-142c0 182 87 291 232 291c160 0 204 -157 284 -157c70 0 98 44 98 157h142c0 -182 -87 -291 -232 -291c-160 0 -204 157 -284 157z" />
    <glyph glyph-name="hungarumlaut" unicode="&#x2dd;" horiz-adv-x="1048" 
d="M485 1263l252 338h210l-280 -338h-182zM85 1263l252 338h210l-280 -338h-182z" />
    <glyph glyph-name="gravecmb" unicode="&#x300;" 
d="M122 1263h-194l-278 338h220z" />
    <glyph glyph-name="acutecmb" unicode="&#x301;" 
d="M-114 1263l252 338h220l-278 -338h-194z" />
    <glyph glyph-name="circumflexcmb" unicode="&#x302;" 
d="M101 1568l282 -340h-198l-177 227h-16l-177 -227h-198l282 340h202z" />
    <glyph glyph-name="tildecmb" unicode="&#x303;" 
d="M-138 1388c-70 0 -98 -44 -98 -157h-142c0 182 87 291 232 291c160 0 204 -157 284 -157c70 0 98 44 98 157h142c0 -182 -87 -291 -232 -291c-160 0 -204 157 -284 157z" />
    <glyph glyph-name="macroncmb" unicode="&#x304;" 
d="M337 1286h-674v136h674v-136z" />
    <glyph glyph-name="brevecmb" unicode="&#x306;" 
d="M-366 1556h154c0 -115 74 -200 210 -200s210 85 210 200h154c0 -189 -136 -328 -364 -328s-364 139 -364 328z" />
    <glyph glyph-name="dotaccentcmb" unicode="&#x307;" 
d="M-128 1287c-70 0 -128 58 -128 128s58 127 128 127s128 -57 128 -127s-58 -128 -128 -128z" />
    <glyph glyph-name="dieresiscmb" unicode="&#x308;" 
d="M-202 1228c-67 0 -121 54 -121 121s54 121 121 121s121 -54 121 -121s-54 -121 -121 -121zM202 1228c-67 0 -121 54 -121 121s54 121 121 121s121 -54 121 -121s-54 -121 -121 -121z" />
    <glyph glyph-name="hookabovecmb" unicode="&#x309;" 
d="M-144 1451v123c32 13 86 21 134 21c141 0 228 -70 228 -184c0 -92 -77 -182 -186 -218l-75 99c66 19 112 64 112 107s-43 75 -100 75c-45 0 -86 -9 -113 -23z" />
    <glyph glyph-name="ringcmb" unicode="&#x30a;" 
d="M-232 1228c-128 0 -232 100 -232 229s104 229 232 229s232 -100 232 -229s-104 -229 -232 -229zM-232 1334c70 0 122 53 122 123s-52 123 -122 123s-122 -53 -122 -123s52 -123 122 -123z" />
    <glyph glyph-name="hungarumlautcmb" unicode="&#x30b;" 
d="M65 1263l252 338h210l-280 -338h-182zM-335 1263l252 338h210l-280 -338h-182z" />
    <glyph glyph-name="caroncmb" unicode="&#x30c;" 
d="M101 1228h-202l-282 340h198l177 -227h16l177 227h198z" />
    <glyph glyph-name="dblgravecmb" unicode="&#x30f;" 
d="M-81 1263h-182l-280 338h210zM319 1263h-182l-280 338h210z" />
    <glyph glyph-name="invertedbrevecmb" unicode="&#x311;" 
d="M-364 1228c0 189 136 328 364 328s364 -139 364 -328h-154c0 115 -74 200 -210 200s-210 -85 -210 -200h-154z" />
    <glyph glyph-name="horncmb" unicode="&#x31b;" 
d="M0 972v139c26 -28 62 -43 103 -43c86 0 121 50 121 173v156h159v-204c0 -157 -100 -265 -247 -265c-53 0 -101 16 -136 44z" />
    <glyph glyph-name="dotbelowcmb" unicode="&#x323;" 
d="M-121 -402c-67 0 -121 54 -121 121s54 121 121 121s121 -54 121 -121s-54 -121 -121 -121z" />
    <glyph glyph-name="dieresisbelowcmb" unicode="&#x324;" 
d="M-202 -432c-67 0 -121 54 -121 121s54 121 121 121s121 -54 121 -121s-54 -121 -121 -121zM202 -432c-67 0 -121 54 -121 121s54 121 121 121s121 -54 121 -121s-54 -121 -121 -121z" />
    <glyph glyph-name="ringbelowcmb" unicode="&#x325;" 
d="M-232 -573c-128 0 -232 100 -232 229s104 229 232 229s232 -100 232 -229s-104 -229 -232 -229zM-232 -467c70 0 122 53 122 123s-52 123 -122 123s-122 -53 -122 -123s52 -123 122 -123z" />
    <glyph glyph-name="commabelowcmb" unicode="&#x326;" 
d="M3 -518h-167l102 377h182z" />
    <glyph glyph-name="cedillacmb" unicode="&#x327;" 
d="M-113 -244v84l63 160h134l-55 -142c136 0 215 -60 215 -163c0 -111 -91 -189 -244 -189c-59 0 -105 6 -146 18v108c24 -7 86 -14 122 -14c77 0 119 26 119 73c0 46 -43 65 -149 65h-59z" />
    <glyph glyph-name="ogonekcmb" unicode="&#x328;" 
d="M124 -289v-123c-24 -13 -70 -20 -128 -20c-130 0 -219 80 -219 197c0 108 62 215 179 310l118 -25c-83 -67 -140 -165 -140 -240c0 -67 40 -108 106 -108c32 0 60 3 84 9z" />
    <glyph glyph-name="circumflexbelowcmb" unicode="&#x32d;" 
d="M82 -142l300 -290h-202l-172 173h-16l-172 -173h-202l300 290h164z" />
    <glyph glyph-name="brevebelowcmb" unicode="&#x32e;" 
d="M-364 -134h154c0 -105 80 -173 210 -173s210 68 210 173h154c0 -179 -138 -298 -364 -298s-364 119 -364 298z" />
    <glyph glyph-name="tildebelowcmb" unicode="&#x330;" 
d="M150 -423c-162 0 -192 168 -296 168c-57 0 -90 -38 -94 -151h-136c0 179 88 281 226 281c173 0 211 -168 296 -168c48 0 89 33 95 151h135c0 -171 -88 -281 -226 -281z" />
    <glyph glyph-name="macronbelowcmb" unicode="&#x331;" 
d="M337 -348h-674v136h674v-136z" />
    <glyph glyph-name="greekquestionmark" unicode="&#x37e;" horiz-adv-x="608" 
d="M260 -367h-150l96 569h202zM304 759c-71 0 -130 59 -130 130c0 72 59 130 130 130c72 0 130 -58 130 -130c0 -71 -58 -130 -130 -130z" />
    <glyph glyph-name="tonosgreek" unicode="&#x384;" horiz-adv-x="915" 
d="M286 1263l88 338h206l-135 -338h-159z" />
    <glyph glyph-name="dieresistonosgreek" unicode="&#x385;" horiz-adv-x="1350" 
d="M344 1263c-67 0 -121 54 -121 121s54 121 121 121s121 -54 121 -121s-54 -121 -121 -121zM1006 1263c-67 0 -121 54 -121 121s54 121 121 121s121 -54 121 -121s-54 -121 -121 -121zM570 1263l37 338h196l-84 -338h-149z" />
    <glyph glyph-name="Alphatonosgreek" unicode="&#x386;" horiz-adv-x="1380" 
d="M1122 0l-145 413h-574l-145 -413h-189l532 1443h178l532 -1443h-189zM682 1210l-226 -644h468l-226 644h-16zM92 1105l88 338h206l-135 -338h-159z" />
    <glyph glyph-name="anoteleia" unicode="&#x387;" horiz-adv-x="630" 
d="M316 794c-83 0 -142 59 -142 142c0 82 59 142 142 142c82 0 140 -60 140 -142c0 -83 -58 -142 -140 -142z" />
    <glyph glyph-name="Epsilontonosgreek" unicode="&#x388;" horiz-adv-x="1618" 
d="M1476 162v-162h-894v1443h894v-162h-714v-463h677v-160h-677v-496h714zM104 1105l88 338h206l-135 -338h-159z" />
    <glyph glyph-name="Etatonosgreek" unicode="&#x389;" horiz-adv-x="1918" 
d="M1734 0h-180v657h-792v-657h-180v1443h180v-624h792v624h180v-1443zM104 1105l88 338h206l-135 -338h-159z" />
    <glyph glyph-name="Iotatonosgreek" unicode="&#x38a;" horiz-adv-x="946" 
d="M762 0h-180v1443h180v-1443zM104 1105l88 338h206l-135 -338h-159z" />
    <glyph glyph-name="Omicrontonosgreek" unicode="&#x38c;" horiz-adv-x="1843" 
d="M1055 1477c410 0 660 -292 660 -755c0 -461 -248 -756 -660 -756c-414 0 -663 294 -663 756c0 464 255 755 663 755zM1055 1311c-294 0 -478 -228 -478 -589c0 -358 178 -590 478 -590c296 0 475 232 475 590c0 361 -180 589 -475 589zM104 1105l88 338h206l-135 -338
h-159z" />
    <glyph glyph-name="Upsilontonosgreek" unicode="&#x38e;" horiz-adv-x="1742" 
d="M1160 0h-180v621l-512 822h205l389 -641h16l389 641h205l-512 -822v-621zM104 1105l88 338h206l-135 -338h-159z" />
    <glyph glyph-name="Omegatonosgreek" unicode="&#x38f;" horiz-adv-x="1854" 
d="M399 0v162h311v16c-196 125 -311 354 -311 619c0 406 266 680 660 680s660 -274 660 -680c0 -265 -115 -494 -311 -619v-16h311v-162h-526v204c233 145 341 331 341 589c0 321 -180 518 -475 518s-475 -197 -475 -518c0 -258 108 -444 341 -589v-204h-526zM104 1105
l88 338h206l-135 -338h-159z" />
    <glyph glyph-name="iotadieresistonosgreek" unicode="&#x390;" horiz-adv-x="633" 
d="M457 -8c-221 0 -309 81 -309 290v796h172v-754c0 -127 47 -181 160 -181c30 0 62 1 93 4v-145c-33 -7 -81 -10 -116 -10zM-62 1263c-67 0 -121 54 -121 121s54 121 121 121s121 -54 121 -121s-54 -121 -121 -121zM600 1263c-67 0 -121 54 -121 121s54 121 121 121
s121 -54 121 -121s-54 -121 -121 -121zM164 1263l37 338h196l-84 -338h-149z" />
    <glyph glyph-name="Alphagreek" unicode="&#x391;" horiz-adv-x="1380" 
d="M1122 0l-145 413h-574l-145 -413h-189l532 1443h178l532 -1443h-189zM682 1210l-226 -644h468l-226 644h-16z" />
    <glyph glyph-name="Betagreek" unicode="&#x392;" horiz-adv-x="1346" 
d="M747 0h-563v1443h552c265 0 427 -139 427 -360c0 -150 -110 -286 -249 -311v-16c197 -25 322 -160 322 -351c0 -254 -182 -405 -489 -405zM364 1284v-463h288c218 0 329 78 329 231c0 147 -104 232 -283 232h-334zM364 159h356c217 0 331 88 331 255s-118 252 -348 252
h-339v-507z" />
    <glyph glyph-name="Gammagreek" unicode="&#x393;" horiz-adv-x="1142" 
d="M184 0v1443h856v-162h-676v-1281h-180z" />
    <glyph glyph-name="Deltagreek" unicode="&#x394;" horiz-adv-x="1394" 
d="M103 0v127l505 1316h178l505 -1316v-127h-1188zM307 162h780v16l-382 1042h-16l-382 -1042v-16z" />
    <glyph glyph-name="Epsilongreek" unicode="&#x395;" horiz-adv-x="1220" 
d="M1078 162v-162h-894v1443h894v-162h-714v-463h677v-160h-677v-496h714z" />
    <glyph glyph-name="Zetagreek" unicode="&#x396;" horiz-adv-x="1355" 
d="M144 0v128l817 1137v16h-789v162h1022v-128l-813 -1137v-16h830v-162h-1067z" />
    <glyph glyph-name="Etagreek" unicode="&#x397;" horiz-adv-x="1520" 
d="M1336 0h-180v657h-792v-657h-180v1443h180v-624h792v624h180v-1443z" />
    <glyph glyph-name="Thetagreek" unicode="&#x398;" horiz-adv-x="1599" 
d="M497 638v162h605v-162h-605zM801 132c296 0 485 212 485 590c0 381 -190 589 -485 589c-294 0 -488 -208 -488 -589c0 -378 188 -590 488 -590zM801 -34c-414 0 -673 274 -673 756c0 484 265 755 673 755c410 0 670 -272 670 -755c0 -481 -258 -756 -670 -756z" />
    <glyph glyph-name="Iotagreek" unicode="&#x399;" horiz-adv-x="548" 
d="M364 0h-180v1443h180v-1443z" />
    <glyph glyph-name="Kappagreek" unicode="&#x39a;" horiz-adv-x="1349" 
d="M364 0h-180v1443h180v-701h16l632 701h226l-577 -623l630 -820h-233l-521 695l-173 -191v-504z" />
    <glyph glyph-name="Lambdagreek" unicode="&#x39b;" horiz-adv-x="1368" 
d="M83 0l512 1443h178l512 -1443h-189l-404 1200h-16l-404 -1200h-189z" />
    <glyph glyph-name="Mugreek" unicode="&#x39c;" horiz-adv-x="1790" 
d="M352 0h-168v1443h209l494 -1194h16l494 1194h209v-1443h-168v1102h-12l-455 -1092h-152l-455 1092h-12v-1102z" />
    <glyph glyph-name="Nugreek" unicode="&#x39d;" horiz-adv-x="1520" 
d="M362 0h-178v1443h175l783 -1123h16v1123h178v-1443h-175l-783 1119h-16v-1119z" />
    <glyph glyph-name="Xigreek" unicode="&#x39e;" horiz-adv-x="1343" 
d="M142 0v167h1059v-167h-1059zM229 653v165h885v-165h-885zM142 1276v167h1059v-167h-1059z" />
    <glyph glyph-name="Omicrongreek" unicode="&#x39f;" horiz-adv-x="1579" 
d="M791 1477c410 0 660 -292 660 -755c0 -461 -248 -756 -660 -756c-414 0 -663 294 -663 756c0 464 255 755 663 755zM791 1311c-294 0 -478 -228 -478 -589c0 -358 178 -590 478 -590c296 0 475 232 475 590c0 361 -180 589 -475 589z" />
    <glyph glyph-name="Pigreek" unicode="&#x3a0;" horiz-adv-x="1500" 
d="M184 0v1443h1132v-1443h-180v1281h-772v-1281h-180z" />
    <glyph glyph-name="Rhogreek" unicode="&#x3a1;" horiz-adv-x="1301" 
d="M184 1443h545c273 0 462 -192 462 -467c0 -270 -193 -461 -464 -461h-363v-515h-180v1443zM364 1283v-608h318c205 0 324 110 324 301c0 198 -115 307 -324 307h-318z" />
    <glyph glyph-name="Sigmagreek" unicode="&#x3a3;" horiz-adv-x="1325" 
d="M154 0v132l419 593l-402 566v152h992v-162h-759v-16l357 -511v-32l-379 -544v-16h809v-162h-1037z" />
    <glyph glyph-name="Taugreek" unicode="&#x3a4;" horiz-adv-x="1298" 
d="M739 0h-180v1281h-465v162h1110v-162h-465v-1281z" />
    <glyph glyph-name="Upsilongreek" unicode="&#x3a5;" horiz-adv-x="1344" 
d="M762 0h-180v621l-512 822h205l389 -641h16l389 641h205l-512 -822v-621z" />
    <glyph glyph-name="Phigreek" unicode="&#x3a6;" horiz-adv-x="1716" 
d="M768 -58v143c-388 18 -650 255 -650 633s262 615 650 633v146h180v-146c388 -18 650 -255 650 -633s-262 -615 -650 -633v-143h-180zM768 246v944c-277 -10 -466 -174 -466 -472s189 -462 466 -472zM948 246c277 10 466 174 466 472s-189 462 -466 472v-944z" />
    <glyph glyph-name="Chigreek" unicode="&#x3a7;" horiz-adv-x="1390" 
d="M90 0l494 726l-488 717h217l380 -574h16l386 574h205l-500 -725l489 -718h-216l-378 569h-16l-385 -569h-204z" />
    <glyph glyph-name="Psigreek" unicode="&#x3a8;" horiz-adv-x="1676" 
d="M748 0v339c-347 1 -579 224 -579 559v545h180v-539c0 -250 143 -393 399 -399v938h180v-938c256 6 399 149 399 399v539h180v-545c0 -335 -232 -559 -579 -559v-339h-180z" />
    <glyph glyph-name="Omegagreek" unicode="&#x3a9;" horiz-adv-x="1590" 
d="M135 0v162h311v16c-196 125 -311 354 -311 619c0 406 266 680 660 680s660 -274 660 -680c0 -265 -115 -494 -311 -619v-16h311v-162h-526v204c233 145 341 331 341 589c0 321 -180 518 -475 518s-475 -197 -475 -518c0 -258 108 -444 341 -589v-204h-526z" />
    <glyph glyph-name="Iotadieresisgreek" unicode="&#x3aa;" horiz-adv-x="548" 
d="M364 0h-180v1443h180v-1443zM72 1575c-67 0 -121 54 -121 121s54 121 121 121s121 -54 121 -121s-54 -121 -121 -121zM476 1575c-67 0 -121 54 -121 121s54 121 121 121s121 -54 121 -121s-54 -121 -121 -121z" />
    <glyph glyph-name="Upsilondieresisgreek" unicode="&#x3ab;" horiz-adv-x="1344" 
d="M762 0h-180v621l-512 822h205l389 -641h16l389 641h205l-512 -822v-621zM470 1575c-67 0 -121 54 -121 121s54 121 121 121s121 -54 121 -121s-54 -121 -121 -121zM874 1575c-67 0 -121 54 -121 121s54 121 121 121s121 -54 121 -121s-54 -121 -121 -121z" />
    <glyph glyph-name="alphatonosgreek" unicode="&#x3ac;" horiz-adv-x="1275" 
d="M532 -19c-277 0 -454 218 -454 558c0 339 178 558 454 558c155 0 267 -76 322 -219h16v200h166v-809c0 -99 25 -128 110 -128c17 0 32 1 49 4v-145c-25 -7 -55 -10 -92 -10c-143 0 -220 63 -232 190l-1 10h-16c-58 -137 -169 -209 -322 -209zM545 136
c195 0 322 159 322 403c0 240 -121 403 -299 403c-195 0 -312 -151 -312 -403c0 -247 112 -403 289 -403zM457 1263l88 338h206l-135 -338h-159z" />
    <glyph glyph-name="epsilontonosgreek" unicode="&#x3ad;" horiz-adv-x="1087" 
d="M562 -21c-277 0 -454 121 -454 310c0 119 61 198 186 240v16c-112 45 -166 121 -166 235c0 191 171 315 434 315s420 -111 452 -318h-174c-28 105 -126 163 -278 163c-166 0 -267 -63 -267 -165c0 -98 92 -156 249 -156h153v-154h-153c-164 0 -258 -60 -258 -164
c0 -106 100 -166 276 -166c156 0 270 72 299 189h174c-34 -201 -232 -345 -473 -345zM490 1263l88 338h206l-135 -338h-159z" />
    <glyph glyph-name="etatonosgreek" unicode="&#x3ae;" horiz-adv-x="1283" 
d="M244 0v809c0 99 -25 128 -110 128c-17 0 -32 -1 -49 -4v145c25 7 55 10 92 10c132 0 209 -55 227 -162l3 -18h16c53 116 181 189 331 189c245 0 381 -143 381 -399v-1058h-172v1016c0 195 -82 286 -258 286c-175 0 -289 -120 -289 -304v-638h-172zM473 1263l88 338h206
l-135 -338h-159z" />
    <glyph glyph-name="iotatonosgreek" unicode="&#x3af;" horiz-adv-x="633" 
d="M457 -8c-221 0 -309 81 -309 290v796h172v-754c0 -127 47 -181 160 -181c30 0 62 1 93 4v-145c-33 -7 -81 -10 -116 -10zM160 1263l88 338h206l-135 -338h-159z" />
    <glyph glyph-name="upsilondieresistonosgreek" unicode="&#x3b0;" horiz-adv-x="1165" 
d="M579 -19c-275 0 -431 158 -431 436v661h172v-652c0 -194 82 -288 254 -288c186 0 295 146 295 395c0 242 -19 345 -102 545h178c61 -125 102 -334 102 -521c0 -356 -179 -576 -468 -576zM232 1263c-67 0 -121 54 -121 121s54 121 121 121s121 -54 121 -121
s-54 -121 -121 -121zM894 1263c-67 0 -121 54 -121 121s54 121 121 121s121 -54 121 -121s-54 -121 -121 -121zM458 1263l37 338h196l-84 -338h-149z" />
    <glyph glyph-name="alphagreek" unicode="&#x3b1;" horiz-adv-x="1275" 
d="M532 -19c-277 0 -454 218 -454 558c0 339 178 558 454 558c155 0 267 -76 322 -219h16v200h166v-809c0 -99 25 -128 110 -128c17 0 32 1 49 4v-145c-25 -7 -55 -10 -92 -10c-143 0 -220 63 -232 190l-1 10h-16c-58 -137 -169 -209 -322 -209zM545 136
c195 0 322 159 322 403c0 240 -121 403 -299 403c-195 0 -312 -151 -312 -403c0 -247 112 -403 289 -403z" />
    <glyph glyph-name="betagreek" unicode="&#x3b2;" horiz-adv-x="1258" 
d="M162 -360v1389c0 314 170 496 463 496c271 0 435 -145 435 -385c0 -134 -77 -249 -204 -304v-16c199 -50 304 -183 304 -384c0 -267 -189 -455 -459 -455c-161 0 -297 70 -351 181h-16v-522h-172zM688 136c170 0 294 125 294 294c0 201 -126 305 -371 305h-89v154h92
c177 0 273 84 273 240c0 147 -101 241 -257 241c-195 0 -296 -122 -296 -359v-503c0 -229 136 -372 354 -372z" />
    <glyph glyph-name="gammagreek" unicode="&#x3b3;" horiz-adv-x="1145" 
d="M448 -350v329l-376 1099h184l291 -926h16c187 263 297 501 297 728c0 83 -5 138 -18 198h161c11 -56 19 -138 19 -198c0 -277 -141 -564 -402 -908v-322h-172z" />
    <glyph glyph-name="deltagreek" unicode="&#x3b4;" horiz-adv-x="1174" 
d="M583 -19c-298 0 -495 205 -495 514c0 251 152 446 386 495v19c-147 68 -211 147 -211 257c0 155 148 259 369 259c142 0 266 -30 343 -82v-152c-108 55 -225 83 -351 83c-122 0 -189 -40 -189 -114c0 -62 43 -96 222 -182c293 -141 425 -318 425 -573
c0 -310 -204 -524 -499 -524zM583 132c196 0 322 146 322 373c0 223 -135 378 -328 378c-185 0 -312 -154 -312 -378c0 -225 126 -373 318 -373z" />
    <glyph glyph-name="epsilongreek" unicode="&#x3b5;" horiz-adv-x="1087" 
d="M562 -19c-277 0 -454 121 -454 310c0 119 61 198 186 240v16c-112 45 -166 121 -166 235c0 191 171 315 434 315s420 -111 452 -318h-174c-28 105 -126 163 -278 163c-166 0 -267 -63 -267 -165c0 -98 92 -156 249 -156h153v-154h-153c-164 0 -258 -60 -258 -164
c0 -106 100 -166 276 -166c156 0 270 72 299 189h174c-34 -201 -232 -345 -473 -345z" />
    <glyph glyph-name="zetagreek" unicode="&#x3b6;" horiz-adv-x="929" 
d="M825 -361l-141 42c50 82 70 138 70 195c0 91 -38 120 -225 181c-326 106 -441 238 -441 521c0 268 182 531 527 758v16h-440v154h721v-153c-434 -253 -630 -494 -630 -775c0 -201 74 -284 328 -366c255 -83 328 -151 328 -309c0 -89 -29 -168 -97 -264z" />
    <glyph glyph-name="etagreek" unicode="&#x3b7;" horiz-adv-x="1283" 
d="M244 0v809c0 99 -25 128 -110 128c-17 0 -32 -1 -49 -4v145c25 7 55 10 92 10c132 0 209 -55 227 -162l3 -18h16c53 116 181 189 331 189c245 0 381 -143 381 -399v-1058h-172v1016c0 195 -82 286 -258 286c-175 0 -289 -120 -289 -304v-638h-172z" />
    <glyph glyph-name="thetagreek" unicode="&#x3b8;" horiz-adv-x="1236" 
d="M618 -19c-318 0 -500 269 -500 771c0 509 184 773 500 773c313 0 500 -258 500 -776c0 -501 -184 -768 -500 -768zM618 136c197 0 312 152 323 550h-646c11 -397 126 -550 323 -550zM296 840h644c-16 379 -135 530 -322 530c-191 0 -306 -158 -322 -530z" />
    <glyph glyph-name="iotagreek" unicode="&#x3b9;" horiz-adv-x="633" 
d="M457 -8c-221 0 -309 81 -309 290v796h172v-754c0 -127 47 -181 160 -181c30 0 62 1 93 4v-145c-33 -7 -81 -10 -116 -10z" />
    <glyph glyph-name="kappagreek" unicode="&#x3ba;" horiz-adv-x="1196" 
d="M162 0v1078h172v-562h16l335 393c118 138 185 179 298 179c33 0 53 -2 82 -10v-145c-18 3 -36 4 -59 4c-76 0 -118 -28 -212 -140l-122 -145l431 -652h-195l-342 531l-232 -253v-278h-172z" />
    <glyph glyph-name="lambdagreek" unicode="&#x3bb;" horiz-adv-x="1191" 
d="M35 0l440 1018l-36 98c-85 231 -110 258 -232 258c-14 0 -22 -1 -45 -4v145c25 7 54 10 88 10c175 0 245 -75 351 -377l316 -898c28 -80 67 -109 146 -109c15 0 29 1 48 4v-145c-25 -7 -55 -10 -86 -10c-148 0 -207 50 -268 226l-202 585h-16l-318 -801h-186z" />
    <glyph glyph-name="mugreek" unicode="&#x3bc;" horiz-adv-x="1313" 
d="M162 -360v1438h172v-654c0 -193 82 -286 244 -286c189 0 304 115 304 302v638h172v-809c0 -99 25 -128 110 -128c16 0 31 1 49 4v-145c-26 -7 -56 -10 -92 -10c-148 0 -209 44 -229 168l-2 12h-16c-56 -125 -159 -189 -304 -189c-103 0 -180 43 -220 129h-16v-470h-172z
" />
    <glyph glyph-name="nugreek" unicode="&#x3bd;" horiz-adv-x="1145" 
d="M641 0h-200l-369 1078h184l291 -927h16c187 263 297 501 297 730c0 79 -6 139 -18 197h161c11 -57 19 -135 19 -195c0 -271 -133 -548 -381 -883z" />
    <glyph glyph-name="xigreek" unicode="&#x3be;" horiz-adv-x="959" 
d="M825 -361l-141 42c52 89 70 137 70 194c0 94 -38 122 -240 187c-311 100 -426 203 -426 391c0 162 102 279 288 331v15c-158 62 -225 147 -225 286c0 122 90 225 221 252v15h-217v154h741v-137l-103 -11c-340 -36 -478 -116 -478 -276c0 -140 113 -201 373 -201h135v-154
h-138c-265 0 -420 -93 -420 -251c0 -130 61 -179 335 -266c246 -79 322 -150 322 -304c0 -91 -22 -151 -97 -267z" />
    <glyph glyph-name="omicrongreek" unicode="&#x3bf;" horiz-adv-x="1180" 
d="M590 -19c-300 0 -492 212 -492 558c0 350 195 558 492 558s492 -208 492 -558c0 -346 -192 -558 -492 -558zM590 136c197 0 314 149 314 403c0 256 -119 403 -314 403s-314 -147 -314 -403c0 -254 117 -403 314 -403z" />
    <glyph glyph-name="pigreek" unicode="&#x3c0;" horiz-adv-x="1391" 
d="M270 0v924h-192v154h1195v-154h-215v-655c0 -100 30 -128 115 -128c20 0 36 2 49 4v-145c-23 -6 -52 -10 -92 -10c-175 0 -239 88 -239 278v656h-454v-924h-167z" />
    <glyph glyph-name="rhogreek" unicode="&#x3c1;" horiz-adv-x="1208" 
d="M132 -360v903c0 350 184 554 486 554c310 0 492 -212 492 -543c0 -354 -176 -573 -460 -573c-149 0 -271 67 -330 181h-16v-522h-172zM611 136c205 0 321 152 321 420c0 246 -114 386 -314 386s-319 -156 -319 -419c0 -230 127 -387 312 -387z" />
    <glyph glyph-name="sigmafinalgreek" unicode="&#x3c2;" horiz-adv-x="1116" 
d="M835 -360l-141 42c50 82 70 138 70 195c0 91 -39 120 -227 181c-329 107 -439 251 -439 503c0 331 207 536 493 536c235 0 399 -132 433 -349h-174c-36 129 -124 194 -264 194c-175 0 -310 -142 -310 -373c0 -187 67 -272 326 -356c256 -83 330 -151 330 -309
c0 -89 -29 -168 -97 -264z" />
    <glyph glyph-name="sigmagreek" unicode="&#x3c3;" horiz-adv-x="1302" 
d="M588 -19c-299 0 -490 216 -490 553c0 333 208 544 536 544h590v-154h-311v-16c99 -75 159 -216 159 -372c0 -334 -193 -555 -484 -555zM588 136c200 0 316 150 316 397c0 244 -128 390 -315 390c-189 0 -313 -152 -313 -390c0 -251 120 -397 312 -397z" />
    <glyph glyph-name="taugreek" unicode="&#x3c4;" horiz-adv-x="1084" 
d="M736 -8c-240 0 -325 82 -325 289v643h-343v154h918v-154h-403v-600c0 -127 45 -181 178 -181c41 0 75 1 105 4v-145c-32 -6 -74 -10 -130 -10z" />
    <glyph glyph-name="upsilongreek" unicode="&#x3c5;" horiz-adv-x="1165" 
d="M579 -19c-275 0 -431 158 -431 436v661h172v-652c0 -194 82 -288 254 -288c186 0 295 146 295 395c0 242 -19 345 -102 545h178c61 -125 102 -334 102 -521c0 -356 -179 -576 -468 -576z" />
    <glyph glyph-name="phigreek" unicode="&#x3c6;" horiz-adv-x="1510" 
d="M672 -360v341c-355 17 -574 230 -574 558s220 542 574 558v291h166v-291c354 -16 574 -230 574 -558s-219 -541 -574 -558v-341h-166zM672 125v826c-250 -19 -400 -173 -400 -412s148 -393 400 -414zM838 125c252 21 400 175 400 414s-150 393 -400 412v-826z" />
    <glyph glyph-name="chigreek" unicode="&#x3c7;" horiz-adv-x="1136" 
d="M75 -360l403 719l-231 466c-42 85 -82 112 -166 112c-14 0 -29 -1 -44 -4v145c25 7 54 10 90 10c133 0 191 -43 267 -200l180 -364h16l290 554h183l-405 -729l229 -458c42 -84 81 -110 165 -110c14 0 27 1 44 4v-145c-25 -7 -54 -10 -90 -10c-126 0 -190 44 -254 174
l-191 381h-16l-287 -545h-183z" />
    <glyph glyph-name="psigreek" unicode="&#x3c8;" horiz-adv-x="1472" 
d="M649 -360v341c-312 0 -501 165 -501 437v660h172v-639c0 -194 116 -301 329 -301v1250h167v-1250c235 0 360 141 360 403c0 227 -27 369 -102 537h178c58 -116 102 -334 102 -505c0 -371 -201 -592 -538 -592v-341h-167z" />
    <glyph glyph-name="omegagreek" unicode="&#x3c9;" horiz-adv-x="1572" 
d="M480 -19c-238 0 -372 188 -372 525c0 217 68 438 177 572h188c-128 -172 -187 -351 -187 -570c0 -249 69 -370 208 -370c126 0 206 108 206 282v349h172v-349c0 -173 80 -282 204 -282c141 0 210 120 210 370c0 219 -59 398 -187 570h188c109 -134 177 -355 177 -572
c0 -337 -134 -525 -372 -525c-142 0 -240 72 -298 221h-16c-58 -149 -156 -221 -298 -221z" />
    <glyph glyph-name="iotadieresisgreek" unicode="&#x3ca;" horiz-adv-x="633" 
d="M457 -8c-221 0 -309 81 -309 290v796h172v-754c0 -127 47 -181 160 -181c30 0 62 1 93 4v-145c-33 -7 -81 -10 -116 -10zM41 1228c-67 0 -121 54 -121 121s54 121 121 121s121 -54 121 -121s-54 -121 -121 -121zM445 1228c-67 0 -121 54 -121 121s54 121 121 121
s121 -54 121 -121s-54 -121 -121 -121z" />
    <glyph glyph-name="upsilondieresisgreek" unicode="&#x3cb;" horiz-adv-x="1165" 
d="M579 -19c-275 0 -431 158 -431 436v661h172v-652c0 -194 82 -288 254 -288c186 0 295 146 295 395c0 242 -19 345 -102 545h178c61 -125 102 -334 102 -521c0 -356 -179 -576 -468 -576zM353 1228c-67 0 -121 54 -121 121s54 121 121 121s121 -54 121 -121
s-54 -121 -121 -121zM757 1228c-67 0 -121 54 -121 121s54 121 121 121s121 -54 121 -121s-54 -121 -121 -121z" />
    <glyph glyph-name="omicrontonosgreek" unicode="&#x3cc;" horiz-adv-x="1180" 
d="M590 -19c-300 0 -492 212 -492 558c0 350 195 558 492 558s492 -208 492 -558c0 -346 -192 -558 -492 -558zM590 136c197 0 314 149 314 403c0 256 -119 403 -314 403s-314 -147 -314 -403c0 -254 117 -403 314 -403zM500 1263l88 338h206l-135 -338h-159z" />
    <glyph glyph-name="upsilontonosgreek" unicode="&#x3cd;" horiz-adv-x="1165" 
d="M579 -19c-275 0 -431 158 -431 436v661h172v-652c0 -194 82 -288 254 -288c186 0 295 146 295 395c0 242 -19 345 -102 545h178c61 -125 102 -334 102 -521c0 -356 -179 -576 -468 -576zM454 1263l88 338h206l-135 -338h-159z" />
    <glyph glyph-name="omegatonosgreek" unicode="&#x3ce;" horiz-adv-x="1572" 
d="M480 -19c-238 0 -372 188 -372 525c0 217 68 438 177 572h188c-128 -172 -187 -351 -187 -570c0 -249 69 -370 208 -370c126 0 206 108 206 282v349h172v-349c0 -173 80 -282 204 -282c141 0 210 120 210 370c0 219 -59 398 -187 570h188c109 -134 177 -355 177 -572
c0 -337 -134 -525 -372 -525c-142 0 -240 72 -298 221h-16c-58 -149 -156 -221 -298 -221zM699 1263l88 338h206l-135 -338h-159z" />
    <glyph glyph-name="Iocyrillic" unicode="&#x401;" horiz-adv-x="1240" 
d="M1088 162v-162h-894v1443h894v-162h-714v-463h677v-160h-677v-496h714zM439 1575c-67 0 -121 54 -121 121s54 121 121 121s121 -54 121 -121s-54 -121 -121 -121zM843 1575c-67 0 -121 54 -121 121s54 121 121 121s121 -54 121 -121s-54 -121 -121 -121z" />
    <glyph glyph-name="Djecyrillic" unicode="&#x402;" horiz-adv-x="1719" 
d="M1159 -16c-88 0 -130 18 -130 18v161s43 -16 128 -16c152 0 264 97 264 293c0 156 -94 305 -309 305c-248 0 -342 -164 -363 -210v-535h-180v1281h-465v162h1110v-162h-465v-520h16c72 78 190 146 358 146c319 0 478 -218 478 -465c0 -270 -166 -458 -442 -458z" />
    <glyph glyph-name="Gjecyrillic" unicode="&#x403;" horiz-adv-x="1160" 
d="M375 0h-181v1443h856v-164h-675v-1279zM477 1575l310 298h226l-332 -298h-204z" />
    <glyph glyph-name="Ecyrillic" unicode="&#x404;" horiz-adv-x="1506" 
d="M1378 402c-48 -265 -281 -436 -593 -436c-398 0 -647 291 -647 755c0 465 249 756 646 756c309 0 551 -191 594 -469h-183c-48 186 -207 303 -411 303c-256 0 -427 -188 -456 -492h640v-162h-643c20 -324 194 -525 460 -525c207 0 364 104 410 270h183z" />
    <glyph glyph-name="Dzecyrillic" unicode="&#x405;" horiz-adv-x="1325" 
d="M125 377h182c22 -151 166 -247 371 -247c194 0 337 105 337 248c0 123 -90 201 -289 251l-185 48c-261 66 -374 184 -374 389c0 245 205 411 510 411c279 0 487 -166 502 -399h-181c-25 148 -147 236 -327 236c-192 0 -319 -96 -319 -242c0 -113 79 -178 278 -229
l151 -40c299 -75 419 -191 419 -403c0 -265 -209 -434 -539 -434c-306 0 -517 162 -536 411z" />
    <glyph glyph-name="Icyrillic" unicode="&#x406;" horiz-adv-x="568" 
d="M374 0h-180v1443h180v-1443z" />
    <glyph glyph-name="Yicyrillic" unicode="&#x407;" horiz-adv-x="568" 
d="M374 0h-180v1443h180v-1443zM82 1575c-67 0 -121 54 -121 121s54 121 121 121s121 -54 121 -121s-54 -121 -121 -121zM486 1575c-67 0 -121 54 -121 121s54 121 121 121s121 -54 121 -121s-54 -121 -121 -121z" />
    <glyph glyph-name="Jecyrillic" unicode="&#x408;" horiz-adv-x="1122" 
d="M96 337h179c4 -121 96 -205 232 -205c154 0 241 94 241 271v1040h180v-1041c0 -275 -159 -436 -420 -436c-242 0 -412 150 -412 371z" />
    <glyph glyph-name="Ljecyrillic" unicode="&#x409;" horiz-adv-x="2168" 
d="M488 540c-22 -347 -113 -549 -368 -549c-27 0 -53 4 -70 10v161c11 -3 38 -6 54 -6c163 0 201 165 214 391l52 896h871v-535h353c271 0 464 -187 464 -455c0 -267 -191 -453 -462 -453h-535v1281h-527zM1241 162h308c207 0 324 105 324 291c0 187 -118 293 -324 293h-308
v-584z" />
    <glyph glyph-name="Njecyrillic" unicode="&#x40a;" horiz-adv-x="2243" 
d="M1306 162h308c207 0 324 93 324 256c0 153 -118 239 -324 239h-308v-495zM374 657v-657h-180v1443h180v-624h752v624h180v-624h353c271 0 464 -165 464 -401c0 -246 -191 -418 -462 -418h-535v657h-752z" />
    <glyph glyph-name="Tshecyrillic" unicode="&#x40b;" horiz-adv-x="1769" 
d="M1102 745c-241 0 -332 -164 -353 -210v-535h-180v1281h-465v162h1110v-162h-465v-518h16c71 77 190 144 355 144c320 0 481 -223 481 -500v-407h-180v395c0 201 -97 350 -319 350z" />
    <glyph glyph-name="Kjecyrillic" unicode="&#x40c;" horiz-adv-x="1369" 
d="M384 809h42l606 634h226l-677 -695l735 -748h-238l-652 665h-42v-665h-180v1443h180v-634zM527 1575l310 298h226l-332 -298h-204z" />
    <glyph glyph-name="Ushortcyrillic" unicode="&#x40e;" horiz-adv-x="1318" 
d="M336 -10c-40 0 -68 7 -80 13v162c12 -3 37 -8 80 -8c108 0 179 45 236 151l-493 1135h192l387 -935h16l378 935h187l-442 -1030c-117 -273 -218 -423 -461 -423zM319 1874h156c0 -109 80 -180 186 -180c108 0 188 71 188 180h156c0 -186 -138 -298 -344 -298
s-342 112 -342 298z" />
    <glyph glyph-name="Dzhecyrillic" unicode="&#x40f;" horiz-adv-x="1519" 
d="M676 0h-482v1443h180v-1281h771v1281h180v-1443h-482v-285h-167v285z" />
    <glyph glyph-name="Acyrillic" unicode="&#x410;" horiz-adv-x="1400" 
d="M1132 0l-145 413h-574l-145 -413h-189l532 1443h178l532 -1443h-189zM692 1210l-226 -644h468l-226 644h-16z" />
    <glyph glyph-name="Becyrillic" unicode="&#x411;" horiz-adv-x="1301" 
d="M1181 433c0 -255 -191 -433 -462 -433h-525v1443h843v-162h-663v-413h343c271 0 464 -179 464 -435zM374 162h298c207 0 324 97 324 271c0 175 -118 273 -324 273h-298v-544z" />
    <glyph glyph-name="Vecyrillic" unicode="&#x412;" horiz-adv-x="1366" 
d="M757 0h-563v1443h552c265 0 427 -139 427 -360c0 -150 -110 -286 -249 -311v-16c197 -25 322 -160 322 -351c0 -254 -182 -405 -489 -405zM374 1284v-463h288c218 0 329 78 329 231c0 147 -104 232 -283 232h-334zM374 159h356c217 0 331 88 331 255s-118 252 -348 252
h-339v-507z" />
    <glyph glyph-name="Gecyrillic" unicode="&#x413;" horiz-adv-x="1160" 
d="M375 0h-181v1443h856v-164h-675v-1279z" />
    <glyph glyph-name="Decyrillic" unicode="&#x414;" horiz-adv-x="1500" 
d="M471 531c-10 -163 -30 -272 -101 -357v-12h700v1119h-552zM207 0v-285h-167v447h107c105 56 144 184 155 373l55 908h893v-1281h180v-447h-167v285h-1056z" />
    <glyph glyph-name="Iecyrillic" unicode="&#x415;" horiz-adv-x="1240" 
d="M1088 162v-162h-894v1443h894v-162h-714v-463h677v-160h-677v-496h714z" />
    <glyph glyph-name="Zhecyrillic" unicode="&#x416;" horiz-adv-x="2089" 
d="M953 806v637h180v-637h42l566 637h221l-638 -695l697 -748h-234l-612 667h-42v-667h-180v667h-42l-612 -667h-231l694 744l-640 699h223l566 -637h42z" />
    <glyph glyph-name="Zecyrillic" unicode="&#x417;" horiz-adv-x="1256" 
d="M416 657v160h195c170 0 290 107 290 258c0 145 -105 242 -287 242c-178 0 -295 -91 -310 -244h-175c18 250 205 404 492 404c271 0 463 -161 463 -386c0 -157 -104 -293 -258 -331v-16c184 -19 320 -148 320 -355c0 -238 -227 -423 -518 -423c-305 0 -515 164 -528 410
h174c16 -151 152 -250 352 -250c203 0 335 112 335 268c0 162 -124 263 -342 263h-203z" />
    <glyph glyph-name="Iicyrillic" unicode="&#x418;" horiz-adv-x="1540" 
d="M1168 0v1148h-16l-780 -1148h-178v1443h178v-1152h16l780 1152h178v-1443h-178z" />
    <glyph glyph-name="Iishortcyrillic" unicode="&#x419;" horiz-adv-x="1540" 
d="M1168 0v1148h-16l-780 -1148h-178v1443h178v-1152h16l780 1152h178v-1443h-178zM422 1874h156c0 -109 80 -180 186 -180c108 0 188 71 188 180h156c0 -186 -138 -298 -344 -298s-342 112 -342 298z" />
    <glyph glyph-name="Kacyrillic" unicode="&#x41a;" horiz-adv-x="1374" 
d="M374 809h42l606 634h226l-677 -695l735 -748h-238l-652 665h-42v-665h-180v1443h180v-634z" />
    <glyph glyph-name="Elcyrillic" unicode="&#x41b;" horiz-adv-x="1425" 
d="M1231 0h-180v1281h-527l-46 -741c-22 -347 -113 -549 -368 -549c-27 0 -53 4 -70 10v161c11 -3 38 -6 54 -6c163 0 201 165 214 391l52 896h871v-1443z" />
    <glyph glyph-name="Emcyrillic" unicode="&#x41c;" horiz-adv-x="1810" 
d="M362 0h-168v1443h209l494 -1194h16l494 1194h209v-1443h-168v1102h-12l-455 -1092h-152l-455 1092h-12v-1102z" />
    <glyph glyph-name="Encyrillic" unicode="&#x41d;" horiz-adv-x="1540" 
d="M1346 0h-180v657h-792v-657h-180v1443h180v-624h792v624h180v-1443z" />
    <glyph glyph-name="Ocyrillic" unicode="&#x41e;" horiz-adv-x="1599" 
d="M801 1477c410 0 660 -292 660 -755c0 -461 -248 -756 -660 -756c-414 0 -663 294 -663 756c0 464 255 755 663 755zM801 1311c-294 0 -478 -228 -478 -589c0 -358 178 -590 478 -590c296 0 475 232 475 590c0 361 -180 589 -475 589z" />
    <glyph glyph-name="Pecyrillic" unicode="&#x41f;" horiz-adv-x="1519" 
d="M1325 0h-178v1279h-772v-1279h-181v1443h1131v-1443z" />
    <glyph glyph-name="Ercyrillic" unicode="&#x420;" horiz-adv-x="1321" 
d="M194 1443h545c273 0 462 -192 462 -467c0 -270 -193 -461 -464 -461h-363v-515h-180v1443zM374 1283v-608h318c205 0 324 110 324 301c0 198 -115 307 -324 307h-318z" />
    <glyph glyph-name="Escyrillic" unicode="&#x421;" horiz-adv-x="1506" 
d="M775 -34c-392 0 -637 290 -637 755c0 466 244 756 636 756c304 0 541 -191 584 -469h-183c-48 186 -202 303 -401 303c-277 0 -451 -228 -451 -590s174 -589 452 -589c201 0 354 103 400 270h183c-48 -265 -276 -436 -583 -436z" />
    <glyph glyph-name="Tecyrillic" unicode="&#x422;" horiz-adv-x="1318" 
d="M749 0h-180v1281h-465v162h1110v-162h-465v-1281z" />
    <glyph glyph-name="Ucyrillic" unicode="&#x423;" horiz-adv-x="1318" 
d="M336 -10c-40 0 -68 7 -80 13v162c12 -3 37 -8 80 -8c108 0 179 45 236 151l-493 1135h192l387 -935h16l378 935h187l-442 -1030c-117 -273 -218 -423 -461 -423z" />
    <glyph glyph-name="Efcyrillic" unicode="&#x424;" horiz-adv-x="1700" 
d="M761 292v869c-276 -11 -456 -171 -456 -434c0 -261 176 -426 456 -435zM1394 726c0 261 -176 426 -455 435v-869c275 11 455 171 455 434zM761 131c-383 9 -638 232 -638 596c0 366 259 584 638 595v141h178v-141c382 -9 637 -232 637 -596c0 -366 -259 -584 -637 -595
v-151h-178v151z" />
    <glyph glyph-name="Xacyrillic" unicode="&#x425;" horiz-adv-x="1410" 
d="M100 0l494 726l-488 717h217l380 -574h16l386 574h205l-500 -725l489 -718h-216l-378 569h-16l-385 -569h-204z" />
    <glyph glyph-name="Tsecyrillic" unicode="&#x426;" horiz-adv-x="1576" 
d="M1506 -285h-167v285h-1145v1443h180v-1281h772v1281h180v-1281h180v-447z" />
    <glyph glyph-name="Checyrillic" unicode="&#x427;" horiz-adv-x="1420" 
d="M1226 0h-180v680h-16c-84 -87 -208 -144 -368 -144c-341 0 -528 235 -528 530v377h180v-365c0 -213 117 -376 347 -376c194 0 332 101 385 216v525h180v-1443z" />
    <glyph glyph-name="Shacyrillic" unicode="&#x428;" horiz-adv-x="1972" 
d="M194 0v1443h180v-1281h522v1281h180v-1281h522v1281h180v-1443h-1584z" />
    <glyph glyph-name="Shchacyrillic" unicode="&#x429;" horiz-adv-x="2028" 
d="M1958 -285h-167v285h-1597v1443h180v-1281h522v1281h180v-1281h522v1281h180v-1281h180v-447z" />
    <glyph glyph-name="Hardsigncyrillic" unicode="&#x42a;" horiz-adv-x="1531" 
d="M959 0h-535v1281h-330v162h510v-535h353c271 0 464 -187 464 -455c0 -267 -191 -453 -462 -453zM604 162h308c207 0 324 105 324 291c0 187 -118 293 -324 293h-308v-584z" />
    <glyph glyph-name="Yericyrillic" unicode="&#x42b;" horiz-adv-x="1768" 
d="M204 0v1443h180v-535h353c271 0 464 -187 464 -455c0 -267 -191 -453 -462 -453h-535zM384 162h308c207 0 324 105 324 291c0 187 -118 293 -324 293h-308v-584zM1574 0h-180v1443h180v-1443z" />
    <glyph glyph-name="Softsigncyrillic" unicode="&#x42c;" horiz-adv-x="1311" 
d="M194 0v1443h180v-535h353c271 0 464 -187 464 -455c0 -267 -191 -453 -462 -453h-535zM374 162h308c207 0 324 105 324 291c0 187 -118 293 -324 293h-308v-584z" />
    <glyph glyph-name="Ereversedcyrillic" unicode="&#x42d;" horiz-adv-x="1506" 
d="M728 -34c-316 0 -552 171 -600 436h183c46 -166 206 -270 417 -270c261 0 433 197 453 525h-643v162h641c-29 307 -197 492 -450 492c-207 0 -370 -117 -418 -303h-183c43 278 288 469 601 469c393 0 639 -290 639 -753c0 -466 -246 -758 -640 -758z" />
    <glyph glyph-name="IUcyrillic" unicode="&#x42e;" horiz-adv-x="2079" 
d="M1291 -34c-389 0 -629 267 -651 691h-266v-657h-180v1443h180v-624h268c33 407 276 658 649 658c404 0 650 -292 650 -755c0 -461 -244 -756 -650 -756zM1291 1311c-288 0 -468 -228 -468 -589c0 -358 174 -590 468 -590c290 0 465 232 465 590c0 361 -176 589 -465 589z
" />
    <glyph glyph-name="IAcyrillic" unicode="&#x42f;" horiz-adv-x="1376" 
d="M1002 717v564h-308c-207 0 -324 -101 -324 -281c0 -181 118 -283 324 -283h308zM722 555l-398 -555h-214l414 577c-204 47 -339 208 -339 423c0 261 191 443 462 443h535v-1443h-180v555h-280z" />
    <glyph glyph-name="acyrillic" unicode="&#x430;" horiz-adv-x="1164" 
d="M504 132c177 0 308 116 308 270v99l-290 -19c-164 -11 -236 -68 -236 -176c0 -110 93 -174 218 -174zM472 -19c-209 0 -364 124 -364 321c0 193 142 304 393 319l311 19v98c0 133 -83 206 -244 206c-129 0 -219 -49 -243 -134h-174c23 173 193 287 423 287
c263 0 410 -135 410 -359v-738h-164v159h-16c-70 -115 -188 -178 -332 -178z" />
    <glyph glyph-name="becyrillic" unicode="&#x431;" horiz-adv-x="1240" 
d="M620 136c207 0 324 144 324 393c0 237 -117 373 -324 373s-324 -136 -324 -373c0 -249 117 -393 324 -393zM265 857h16c65 114 184 199 365 199c284 0 476 -198 476 -527c0 -340 -192 -548 -502 -548c-319 0 -502 209 -502 651c0 496 115 798 544 817l108 5
c169 8 280 57 281 58v-154s-61 -55 -273 -64l-110 -5c-287 -13 -370 -166 -403 -432z" />
    <glyph glyph-name="vecyrillic" unicode="&#x432;" horiz-adv-x="1128" 
d="M611 934h-268v-304h240c140 0 203 53 203 154c0 90 -54 150 -175 150zM598 486h-255v-342h288c132 0 202 60 202 169c0 120 -80 173 -235 173zM171 0v1078h462c204 0 323 -109 323 -276c0 -106 -75 -206 -176 -227v-16c137 -19 224 -119 224 -249
c0 -188 -137 -310 -369 -310h-464z" />
    <glyph glyph-name="gecyrillic" unicode="&#x433;" horiz-adv-x="951" 
d="M861 934h-518v-934h-172v1078h690v-144z" />
    <glyph glyph-name="decyrillic" unicode="&#x434;" horiz-adv-x="1256" 
d="M857 144v790h-409l-34 -461c-10 -131 -38 -246 -89 -313v-16h532zM196 -285h-162v429h90c79 52 118 188 128 333l42 601h735v-934h172v-429h-162v285h-843v-285z" />
    <glyph glyph-name="iecyrillic" unicode="&#x435;" horiz-adv-x="1190" 
d="M602 945c-172 0 -292 -126 -305 -317h594c-4 191 -118 317 -289 317zM886 279h172c-52 -185 -218 -298 -454 -298c-299 0 -486 216 -486 557c0 339 190 559 486 559c291 0 468 -207 468 -542v-66h-775v-8c9 -213 128 -348 311 -348c139 0 233 51 278 146z" />
    <glyph glyph-name="zhecyrillic" unicode="&#x436;" horiz-adv-x="1639" 
d="M68 0l475 568l-459 510h209l387 -454h54v454h168v-454h54l387 454h206l-456 -506l478 -572h-218l-397 494h-54v-494h-168v494h-54l-397 -494h-215z" />
    <glyph glyph-name="zecyrillic" unicode="&#x437;" horiz-adv-x="1069" 
d="M533 -18c-234 0 -404 115 -423 294h177c21 -94 111 -149 246 -149c159 0 247 75 247 182c0 123 -82 179 -247 179h-163v144h163c136 0 206 53 206 161c0 91 -65 158 -206 158c-129 0 -220 -56 -234 -143h-170c23 177 178 289 404 289c243 0 376 -119 376 -291
c0 -107 -69 -203 -175 -227v-16c143 -31 217 -121 217 -245c0 -200 -167 -336 -418 -336z" />
    <glyph glyph-name="iicyrillic" unicode="&#x438;" horiz-adv-x="1249" 
d="M343 0h-172v1078h172v-804h16l547 804h172v-1078h-172v804h-16z" />
    <glyph glyph-name="iishortcyrillic" unicode="&#x439;" horiz-adv-x="1249" 
d="M343 0h-172v1078h172v-804h16l547 804h172v-1078h-172v804h-16zM262 1556h156c0 -109 70 -210 186 -210c118 0 188 101 188 210h156c0 -186 -138 -328 -344 -328s-342 142 -342 328z" />
    <glyph glyph-name="kacyrillic" unicode="&#x43a;" horiz-adv-x="1113" 
d="M343 627h47l427 451h209l-494 -508l513 -570h-223l-432 491h-47v-491h-172v1078h172v-451z" />
    <glyph glyph-name="elcyrillic" unicode="&#x43b;" horiz-adv-x="1184" 
d="M430 473c-22 -296 -93 -482 -317 -482c-31 0 -51 6 -63 11v158c9 -3 29 -8 54 -8c107 0 148 125 162 325l42 601h705v-1078h-172v934h-377z" />
    <glyph glyph-name="emcyrillic" unicode="&#x43c;" horiz-adv-x="1541" 
d="M343 0h-172v1078h209l386 -836h16l387 836h201v-1078h-173v767h-19l-341 -737h-134l-341 737h-19v-767z" />
    <glyph glyph-name="encyrillic" unicode="&#x43d;" horiz-adv-x="1234" 
d="M171 0v1078h172v-446h548v446h172v-1078h-172v488h-548v-488h-172z" />
    <glyph glyph-name="ocyrillic" unicode="&#x43e;" horiz-adv-x="1230" 
d="M615 136c204 0 319 148 319 403c0 256 -115 403 -319 403s-319 -147 -319 -403c0 -255 115 -403 319 -403zM615 -19c-307 0 -497 212 -497 558c0 347 190 558 497 558s497 -211 497 -558c0 -346 -190 -558 -497 -558z" />
    <glyph glyph-name="pecyrillic" unicode="&#x43f;" horiz-adv-x="1224" 
d="M881 0v934h-538v-934h-172v1078h882v-1078h-172z" />
    <glyph glyph-name="ercyrillic" unicode="&#x440;" horiz-adv-x="1267" 
d="M696 1097c275 0 453 -219 453 -558c0 -337 -179 -558 -453 -558c-154 0 -278 67 -337 181h-16v-522h-172v1438h164v-180h16c69 124 198 199 345 199zM655 136c198 0 316 151 316 403s-118 403 -315 403c-195 0 -318 -155 -318 -403c0 -247 123 -403 317 -403z" />
    <glyph glyph-name="escyrillic" unicode="&#x441;" horiz-adv-x="1166" 
d="M1064 748h-174c-28 107 -123 194 -278 194c-194 0 -316 -155 -316 -399c0 -249 124 -407 316 -407c145 0 246 67 278 189h174c-31 -198 -192 -344 -451 -344c-302 0 -495 219 -495 562c0 336 192 554 494 554c262 0 422 -157 452 -349z" />
    <glyph glyph-name="tecyrillic" unicode="&#x442;" horiz-adv-x="1032" 
d="M952 1078v-144h-350v-934h-172v934h-350v144h872z" />
    <glyph glyph-name="ucyrillic" unicode="&#x443;" horiz-adv-x="1132" 
d="M264 -391c-23 0 -53 2 -77 6v147c21 -4 48 -5 72 -5c99 0 153 48 198 178l20 64l-399 1079h186l296 -887h16l295 887h183l-421 -1144c-92 -250 -178 -325 -369 -325z" />
    <glyph glyph-name="efcyrillic" unicode="&#x444;" horiz-adv-x="1515" 
d="M674 136v806c-233 -5 -381 -157 -381 -403c0 -245 148 -397 381 -403zM1222 539c0 245 -148 397 -380 403v-806c232 5 380 157 380 403zM674 -13c-334 6 -556 220 -556 552c0 333 222 547 556 552v352h168v-352c333 -6 555 -220 555 -552c0 -333 -222 -547 -555 -552
v-347h-168v347z" />
    <glyph glyph-name="hacyrillic" unicode="&#x445;" horiz-adv-x="1096" 
d="M554 407h-16l-256 -407h-195l369 539l-373 539h205l256 -401h16l253 401h195l-366 -532l371 -546h-204z" />
    <glyph glyph-name="tsecyrillic" unicode="&#x446;" horiz-adv-x="1270" 
d="M1215 -285h-162v285h-882v1078h172v-934h528v934h172v-934h172v-429z" />
    <glyph glyph-name="checyrillic" unicode="&#x447;" horiz-adv-x="1164" 
d="M993 0h-172v486h-16c-59 -49 -145 -102 -282 -102c-237 0 -372 156 -372 386v308h172v-308c0 -142 76 -233 213 -233c173 0 259 99 285 136v405h172v-1078z" />
    <glyph glyph-name="shacyrillic" unicode="&#x448;" horiz-adv-x="1674" 
d="M171 0v1078h172v-934h408v934h172v-934h408v934h172v-1078h-1332z" />
    <glyph glyph-name="shchacyrillic" unicode="&#x449;" horiz-adv-x="1730" 
d="M1675 -285h-162v285h-1342v1078h172v-934h408v934h172v-934h408v934h172v-934h172v-429z" />
    <glyph glyph-name="hardsigncyrillic" unicode="&#x44a;" horiz-adv-x="1237" 
d="M745 0h-375v934h-290v144h462v-346h203c247 0 405 -142 405 -366s-158 -366 -405 -366zM745 588h-203v-444h203c142 0 233 88 233 222c0 135 -92 222 -233 222z" />
    <glyph glyph-name="yericyrillic" unicode="&#x44b;" horiz-adv-x="1437" 
d="M1094 0v1078h172v-1078h-172zM556 588h-203v-444h203c142 0 233 88 233 222c0 135 -92 222 -233 222zM181 0v1078h172v-346h203c247 0 405 -142 405 -366s-158 -366 -405 -366h-375z" />
    <glyph glyph-name="softsigncyrillic" unicode="&#x44c;" horiz-adv-x="1048" 
d="M546 588h-203v-444h203c142 0 233 88 233 222c0 135 -92 222 -233 222zM171 0v1078h172v-346h203c247 0 405 -142 405 -366s-158 -366 -405 -366h-375z" />
    <glyph glyph-name="ereversedcyrillic" unicode="&#x44d;" horiz-adv-x="1182" 
d="M564 -18c-261 0 -423 146 -454 344h174c32 -122 134 -189 281 -189c180 0 305 138 320 348h-502v144h499c-20 192 -147 313 -317 313c-157 0 -253 -87 -281 -194h-174c30 192 191 349 455 349c302 0 499 -218 499 -554c0 -343 -198 -561 -500 -561z" />
    <glyph glyph-name="iucyrillic" unicode="&#x44e;" horiz-adv-x="1630" 
d="M1025 -19c-286 0 -468 191 -486 507h-196v-488h-172v1078h172v-446h200c31 291 209 465 482 465c301 0 487 -211 487 -558c0 -346 -186 -558 -487 -558zM1025 136c198 0 309 148 309 403c0 256 -111 403 -309 403s-309 -147 -309 -403c0 -255 111 -403 309 -403z" />
    <glyph glyph-name="iacyrillic" unicode="&#x44f;" horiz-adv-x="1088" 
d="M542 530h203v404h-203c-142 0 -233 -78 -233 -209c0 -114 92 -195 233 -195zM745 0v386h-185l-275 -386h-205l301 418c-152 43 -244 155 -244 303c0 222 158 357 405 357h375v-1078h-172z" />
    <glyph glyph-name="iocyrillic" unicode="&#x451;" horiz-adv-x="1190" 
d="M602 945c-172 0 -292 -126 -305 -317h594c-4 191 -118 317 -289 317zM886 279h172c-52 -185 -218 -298 -454 -298c-299 0 -486 216 -486 557c0 339 190 559 486 559c291 0 468 -207 468 -542v-66h-775v-8c9 -213 128 -348 311 -348c139 0 233 51 278 146zM402 1228
c-67 0 -121 54 -121 121s54 121 121 121s121 -54 121 -121s-54 -121 -121 -121zM806 1228c-67 0 -121 54 -121 121s54 121 121 121s121 -54 121 -121s-54 -121 -121 -121z" />
    <glyph glyph-name="djecyrillic" unicode="&#x452;" horiz-adv-x="1272" 
d="M1104 -84c0 -220 -104 -314 -330 -314h-30v147h26c122 0 162 48 162 167v740c0 191 -89 286 -264 286c-193 0 -314 -122 -314 -304v-638h-172v1287h-124v124h124v153h172v-153h260v-124h-260v-379h16c54 119 182 189 347 189c245 0 387 -146 387 -399v-782z" />
    <glyph glyph-name="gjecyrillic" unicode="&#x453;" horiz-adv-x="951" 
d="M871 934h-518v-934h-172v1078h690v-144zM388 1263l252 338h220l-278 -338h-194z" />
    <glyph glyph-name="ecyrillic" unicode="&#x454;" horiz-adv-x="1166" 
d="M1064 326c-31 -198 -192 -344 -451 -344c-302 0 -495 218 -495 561c0 336 192 554 494 554c262 0 422 -157 452 -349h-174c-28 107 -123 194 -278 194c-169 0 -290 -119 -312 -310h491v-144h-494c11 -215 136 -351 315 -351c145 0 246 67 278 189h174z" />
    <glyph glyph-name="dzecyrillic" unicode="&#x455;" horiz-adv-x="1092" 
d="M147 783c0 179 173 314 402 314c226 0 383 -112 406 -289h-170c-23 86 -107 143 -237 143c-128 0 -228 -65 -228 -161c0 -74 60 -120 187 -151l166 -40c203 -49 301 -137 301 -292c0 -193 -187 -326 -432 -326c-240 0 -405 115 -424 294h177c29 -91 115 -149 253 -149
c145 0 249 69 249 168c0 74 -56 124 -171 152l-185 45c-202 49 -294 136 -294 292z" />
    <glyph glyph-name="icyrillic" unicode="&#x456;" horiz-adv-x="536" 
d="M176 0v1078h172v-1078h-172zM262 1297c-66 0 -120 54 -120 120s54 120 120 120s120 -54 120 -120s-54 -120 -120 -120z" />
    <glyph glyph-name="yicyrillic" unicode="&#x457;" horiz-adv-x="536" 
d="M182 0v1078h172v-1078h-172zM66 1228c-67 0 -121 54 -121 121s54 121 121 121s121 -54 121 -121s-54 -121 -121 -121zM470 1228c-67 0 -121 54 -121 121s54 121 121 121s121 -54 121 -121s-54 -121 -121 -121z" />
    <glyph glyph-name="jecyrillic" unicode="&#x458;" horiz-adv-x="536" 
d="M348 1078v-1159c0 -222 -104 -317 -330 -317h-30v147h26c122 0 162 48 162 167v1162h172zM262 1297c-66 0 -120 54 -120 120s54 120 120 120s120 -54 120 -120s-54 -120 -120 -120z" />
    <glyph glyph-name="ljecyrillic" unicode="&#x459;" horiz-adv-x="1728" 
d="M440 473c-22 -296 -93 -482 -317 -482c-31 0 -51 6 -63 11v158c9 -3 29 -8 54 -8c107 0 148 125 162 325l42 601h705v-346h203c247 0 405 -142 405 -366s-158 -366 -405 -366h-375v934h-377zM1226 588h-203v-444h203c142 0 233 88 233 222c0 135 -92 222 -233 222z" />
    <glyph glyph-name="njecyrillic" unicode="&#x45a;" horiz-adv-x="1748" 
d="M1256 508h-213v-364h213c136 0 223 72 223 182c0 111 -88 182 -223 182zM871 0v508h-528v-508h-172v1078h172v-426h528v426h172v-426h213c241 0 395 -126 395 -326s-154 -326 -395 -326h-385z" />
    <glyph glyph-name="tshecyrillic" unicode="&#x45b;" horiz-adv-x="1272" 
d="M354 908h16c54 119 182 189 347 189c245 0 387 -146 387 -399v-698h-172v656c0 191 -89 286 -264 286c-193 0 -314 -122 -314 -304v-638h-172v1287h-124v124h124v153h172v-153h260v-124h-260v-379z" />
    <glyph glyph-name="kjecyrillic" unicode="&#x45c;" horiz-adv-x="1113" 
d="M343 627h47l427 451h209l-494 -508l513 -570h-223l-432 491h-47v-491h-172v1078h172v-451zM438 1263l252 338h220l-278 -338h-194z" />
    <glyph glyph-name="ushortcyrillic" unicode="&#x45e;" horiz-adv-x="1132" 
d="M264 -391c-23 0 -53 2 -77 6v147c21 -4 48 -5 72 -5c99 0 153 48 198 178l20 64l-399 1079h186l296 -887h16l295 887h183l-421 -1144c-92 -250 -178 -325 -369 -325zM232 1556h156c0 -109 70 -210 186 -210c118 0 188 101 188 210h156c0 -186 -138 -328 -344 -328
s-342 142 -342 328z" />
    <glyph glyph-name="dzhecyrillic" unicode="&#x45f;" horiz-adv-x="1224" 
d="M1053 0h-360v-285h-162v285h-360v1078h172v-934h538v934h172v-1078z" />
    <glyph glyph-name="Geupturncyrillic" unicode="&#x490;" horiz-adv-x="1160" 
d="M375 1279v-1279h-181v1443h689v285h167v-449h-675z" />
    <glyph glyph-name="geupturncyrillic" unicode="&#x491;" horiz-adv-x="951" 
d="M861 934h-518v-934h-172v1078h528v285h162v-429z" />
    <glyph glyph-name="baht" unicode="&#xe3f;" horiz-adv-x="1328" 
d="M664 665v-506c204 6 311 93 311 255c0 158 -105 242 -311 251zM348 159h182v507h-182v-507zM348 1284v-463h182v463h-182zM664 1282v-456c160 19 241 95 241 226c0 135 -88 218 -241 230zM838 772v-16c197 -25 322 -160 322 -351c0 -254 -182 -405 -489 -405h-7v-137
h-134v137h-362v1443h362v157h134v-157c263 -1 423 -140 423 -360c0 -150 -110 -286 -249 -311z" />
    <glyph glyph-name="Aringbelow" unicode="&#x1e00;" horiz-adv-x="1380" 
d="M1122 0l-145 413h-574l-145 -413h-189l532 1443h178l532 -1443h-189zM682 1210l-226 -644h468l-226 644h-16zM690 -573c-128 0 -232 100 -232 229s104 229 232 229s232 -100 232 -229s-104 -229 -232 -229zM690 -467c70 0 122 53 122 123s-52 123 -122 123
s-122 -53 -122 -123s52 -123 122 -123z" />
    <glyph glyph-name="aringbelow" unicode="&#x1e01;" horiz-adv-x="1130" 
d="M494 132c177 0 308 116 308 270v99l-290 -19c-164 -11 -236 -68 -236 -176c0 -110 93 -174 218 -174zM462 -19c-209 0 -364 124 -364 321c0 193 142 304 393 319l311 19v98c0 133 -83 206 -244 206c-129 0 -219 -49 -243 -134h-174c23 173 193 287 423 287
c263 0 410 -135 410 -359v-738h-164v159h-16c-70 -115 -188 -178 -332 -178zM536 -573c-128 0 -232 100 -232 229s104 229 232 229s232 -100 232 -229s-104 -229 -232 -229zM536 -467c70 0 122 53 122 123s-52 123 -122 123s-122 -53 -122 -123s52 -123 122 -123z" />
    <glyph glyph-name="Bdotaccent" unicode="&#x1e02;" horiz-adv-x="1346" 
d="M747 0h-563v1443h552c265 0 427 -139 427 -360c0 -150 -110 -286 -249 -311v-16c197 -25 322 -160 322 -351c0 -254 -182 -405 -489 -405zM364 1284v-463h288c218 0 329 78 329 231c0 147 -104 232 -283 232h-334zM364 159h356c217 0 331 88 331 255s-118 252 -348 252
h-339v-507zM604 1575c-67 0 -121 54 -121 121s54 121 121 121s121 -54 121 -121s-54 -121 -121 -121z" />
    <glyph glyph-name="bdotaccent" unicode="&#x1e03;" horiz-adv-x="1258" 
d="M698 -19c-150 0 -278 71 -346 191h-16v-172h-164v1506h172v-598h16c59 116 190 189 338 189c274 0 452 -219 452 -558c0 -337 -179 -558 -452 -558zM658 942c-196 0 -318 -154 -318 -403s122 -403 318 -403c197 0 314 151 314 403s-117 403 -314 403zM258 1638
c-67 0 -121 54 -121 121s54 121 121 121s121 -54 121 -121s-54 -121 -121 -121z" />
    <glyph glyph-name="Bdotbelow" unicode="&#x1e04;" horiz-adv-x="1346" 
d="M747 0h-563v1443h552c265 0 427 -139 427 -360c0 -150 -110 -286 -249 -311v-16c197 -25 322 -160 322 -351c0 -254 -182 -405 -489 -405zM364 1284v-463h288c218 0 329 78 329 231c0 147 -104 232 -283 232h-334zM364 159h356c217 0 331 88 331 255s-118 252 -348 252
h-339v-507zM605 -402c-67 0 -121 54 -121 121s54 121 121 121s121 -54 121 -121s-54 -121 -121 -121z" />
    <glyph glyph-name="bdotbelow" unicode="&#x1e05;" horiz-adv-x="1258" 
d="M698 -19c-150 0 -278 71 -346 191h-16v-172h-164v1506h172v-598h16c59 116 190 189 338 189c274 0 452 -219 452 -558c0 -337 -179 -558 -452 -558zM658 942c-196 0 -318 -154 -318 -403s122 -403 318 -403c197 0 314 151 314 403s-117 403 -314 403zM661 -402
c-67 0 -121 54 -121 121s54 121 121 121s121 -54 121 -121s-54 -121 -121 -121z" />
    <glyph glyph-name="Blinebelow" unicode="&#x1e06;" horiz-adv-x="1346" 
d="M747 0h-563v1443h552c265 0 427 -139 427 -360c0 -150 -110 -286 -249 -311v-16c197 -25 322 -160 322 -351c0 -254 -182 -405 -489 -405zM364 1284v-463h288c218 0 329 78 329 231c0 147 -104 232 -283 232h-334zM364 159h356c217 0 331 88 331 255s-118 252 -348 252
h-339v-507zM942 -348h-674v136h674v-136z" />
    <glyph glyph-name="blinebelow" unicode="&#x1e07;" horiz-adv-x="1258" 
d="M698 -19c-150 0 -278 71 -346 191h-16v-172h-164v1506h172v-598h16c59 116 190 189 338 189c274 0 452 -219 452 -558c0 -337 -179 -558 -452 -558zM658 942c-196 0 -318 -154 -318 -403s122 -403 318 -403c197 0 314 151 314 403s-117 403 -314 403zM998 -348h-674v136
h674v-136z" />
    <glyph glyph-name="Ccedillaacute" unicode="&#x1e08;" horiz-adv-x="1466" 
d="M1194 1875l-332 -298h-204l310 298h226zM1348 1008h-183c-48 186 -202 303 -401 303c-277 0 -451 -228 -451 -590s174 -589 452 -589c201 0 354 103 400 270h183c-44 -244 -241 -408 -512 -433l-43 -111c136 0 215 -60 215 -163c0 -111 -91 -189 -244 -189
c-59 0 -105 6 -146 18v108c24 -7 86 -14 122 -14c77 0 119 26 119 73c0 46 -43 65 -149 65h-59v84l51 129c-355 29 -574 313 -574 752c0 466 244 756 636 756c304 0 541 -191 584 -469z" />
    <glyph glyph-name="ccedillaacute" unicode="&#x1e09;" horiz-adv-x="1146" 
d="M958 1601l-278 -338h-194l252 338h220zM1054 748h-174c-28 107 -123 194 -278 194c-194 0 -316 -155 -316 -399c0 -249 124 -407 316 -407c145 0 246 67 278 189h174c-28 -177 -160 -313 -373 -339l-49 -128c136 0 215 -60 215 -163c0 -111 -91 -189 -244 -189
c-59 0 -105 6 -146 18v108c24 -7 86 -14 122 -14c77 0 119 26 119 73c0 46 -43 65 -149 65h-59v84l57 144c-270 25 -439 238 -439 559c0 336 192 554 494 554c262 0 422 -157 452 -349z" />
    <glyph glyph-name="Ddotaccent" unicode="&#x1e0a;" horiz-adv-x="1487" 
d="M184 1443h495c428 0 681 -267 681 -721c0 -455 -252 -722 -681 -722h-495v1443zM364 1281v-1119h303c322 0 509 206 509 558c0 353 -189 561 -509 561h-303zM594 1575c-67 0 -121 54 -121 121s54 121 121 121s121 -54 121 -121s-54 -121 -121 -121z" />
    <glyph glyph-name="ddotaccent" unicode="&#x1e0b;" horiz-adv-x="1258" 
d="M561 -19c-276 0 -453 219 -453 558c0 338 179 558 453 558c150 0 277 -71 338 -189h15v598h172v-1506h-164v172h-16c-68 -120 -196 -191 -345 -191zM601 942c-196 0 -315 -152 -315 -403c0 -252 118 -403 315 -403c196 0 317 154 317 403c0 247 -122 403 -317 403z
M1000 1638c-67 0 -121 54 -121 121s54 121 121 121s121 -54 121 -121s-54 -121 -121 -121z" />
    <glyph glyph-name="Ddotbelow" unicode="&#x1e0c;" horiz-adv-x="1487" 
d="M184 1443h495c428 0 681 -267 681 -721c0 -455 -252 -722 -681 -722h-495v1443zM364 1281v-1119h303c322 0 509 206 509 558c0 353 -189 561 -509 561h-303zM594 -402c-67 0 -121 54 -121 121s54 121 121 121s121 -54 121 -121s-54 -121 -121 -121z" />
    <glyph glyph-name="ddotbelow" unicode="&#x1e0d;" horiz-adv-x="1258" 
d="M561 -19c-276 0 -453 219 -453 558c0 338 179 558 453 558c150 0 277 -71 338 -189h15v598h172v-1506h-164v172h-16c-68 -120 -196 -191 -345 -191zM601 942c-196 0 -315 -152 -315 -403c0 -252 118 -403 315 -403c196 0 317 154 317 403c0 247 -122 403 -317 403z
M672 -402c-67 0 -121 54 -121 121s54 121 121 121s121 -54 121 -121s-54 -121 -121 -121z" />
    <glyph glyph-name="Dlinebelow" unicode="&#x1e0e;" horiz-adv-x="1487" 
d="M184 1443h495c428 0 681 -267 681 -721c0 -455 -252 -722 -681 -722h-495v1443zM364 1281v-1119h303c322 0 509 206 509 558c0 353 -189 561 -509 561h-303zM931 -348h-674v136h674v-136z" />
    <glyph glyph-name="dlinebelow" unicode="&#x1e0f;" horiz-adv-x="1258" 
d="M561 -19c-276 0 -453 219 -453 558c0 338 179 558 453 558c150 0 277 -71 338 -189h15v598h172v-1506h-164v172h-16c-68 -120 -196 -191 -345 -191zM601 942c-196 0 -315 -152 -315 -403c0 -252 118 -403 315 -403c196 0 317 154 317 403c0 247 -122 403 -317 403z
M1009 -348h-674v136h674v-136z" />
    <glyph glyph-name="Dcommaaccent" unicode="&#x1e10;" horiz-adv-x="1487" 
d="M184 1443h495c428 0 681 -267 681 -721c0 -455 -252 -722 -681 -722h-495v1443zM364 1281v-1119h303c322 0 509 206 509 558c0 353 -189 561 -509 561h-303zM597 -518h-167l102 377h182z" />
    <glyph glyph-name="dcommaaccent" unicode="&#x1e11;" horiz-adv-x="1258" 
d="M561 -19c-276 0 -453 219 -453 558c0 338 179 558 453 558c150 0 277 -71 338 -189h15v598h172v-1506h-164v172h-16c-68 -120 -196 -191 -345 -191zM601 942c-196 0 -315 -152 -315 -403c0 -252 118 -403 315 -403c196 0 317 154 317 403c0 247 -122 403 -317 403z
M675 -518h-167l102 377h182z" />
    <glyph glyph-name="Dcircumflexbelow" unicode="&#x1e12;" horiz-adv-x="1487" 
d="M184 1443h495c428 0 681 -267 681 -721c0 -455 -252 -722 -681 -722h-495v1443zM364 1281v-1119h303c322 0 509 206 509 558c0 353 -189 561 -509 561h-303zM676 -142l300 -290h-202l-172 173h-16l-172 -173h-202l300 290h164z" />
    <glyph glyph-name="dcircumflexbelow" unicode="&#x1e13;" horiz-adv-x="1258" 
d="M561 -19c-276 0 -453 219 -453 558c0 338 179 558 453 558c150 0 277 -71 338 -189h15v598h172v-1506h-164v172h-16c-68 -120 -196 -191 -345 -191zM601 942c-196 0 -315 -152 -315 -403c0 -252 118 -403 315 -403c196 0 317 154 317 403c0 247 -122 403 -317 403z
M754 -142l300 -290h-202l-172 173h-16l-172 -173h-202l300 290h164z" />
    <glyph glyph-name="Emacrongrave" unicode="&#x1e14;" horiz-adv-x="1220" 
d="M1078 162v-162h-894v1443h894v-162h-714v-463h677v-160h-677v-496h714zM968 1620h-674v130h674v-130zM737 1873h-192l-246 222h218z" />
    <glyph glyph-name="emacrongrave" unicode="&#x1e15;" horiz-adv-x="1170" 
d="M592 945c-172 0 -292 -126 -305 -317h594c-4 191 -118 317 -289 317zM876 279h172c-52 -185 -218 -298 -454 -298c-299 0 -486 216 -486 557c0 339 190 559 486 559c291 0 468 -207 468 -542v-66h-775v-8c9 -213 128 -348 311 -348c139 0 233 51 278 146zM716 1555h-192
l-226 288h218zM931 1263h-674v136h674v-136z" />
    <glyph glyph-name="Emacronacute" unicode="&#x1e16;" horiz-adv-x="1220" 
d="M1078 162v-162h-894v1443h894v-162h-714v-463h677v-160h-677v-496h714zM968 1619h-674v130h674v-130zM525 1872l220 222h218l-246 -222h-192z" />
    <glyph glyph-name="emacronacute" unicode="&#x1e17;" horiz-adv-x="1170" 
d="M592 945c-172 0 -292 -126 -305 -317h594c-4 191 -118 317 -289 317zM876 279h172c-52 -185 -218 -298 -454 -298c-299 0 -486 216 -486 557c0 339 190 559 486 559c291 0 468 -207 468 -542v-66h-775v-8c9 -213 128 -348 311 -348c139 0 233 51 278 146zM472 1555
l200 288h218l-226 -288h-192zM931 1263h-674v136h674v-136z" />
    <glyph glyph-name="Ecircumflexbelow" unicode="&#x1e18;" horiz-adv-x="1220" 
d="M1078 162v-162h-894v1443h894v-162h-714v-463h677v-160h-677v-496h714zM713 -142l300 -290h-202l-172 173h-16l-172 -173h-202l300 290h164z" />
    <glyph glyph-name="ecircumflexbelow" unicode="&#x1e19;" horiz-adv-x="1170" 
d="M592 945c-172 0 -292 -126 -305 -317h594c-4 191 -118 317 -289 317zM876 279h172c-52 -185 -218 -298 -454 -298c-299 0 -486 216 -486 557c0 339 190 559 486 559c291 0 468 -207 468 -542v-66h-775v-8c9 -213 128 -348 311 -348c139 0 233 51 278 146zM677 -142
l300 -290h-202l-172 173h-16l-172 -173h-202l300 290h164z" />
    <glyph glyph-name="Etildebelow" unicode="&#x1e1a;" horiz-adv-x="1220" 
d="M1078 162v-162h-894v1443h894v-162h-714v-463h677v-160h-677v-496h714zM781 -423c-162 0 -192 168 -296 168c-57 0 -90 -38 -94 -151h-136c0 179 88 281 226 281c173 0 211 -168 296 -168c48 0 89 33 95 151h135c0 -171 -88 -281 -226 -281z" />
    <glyph glyph-name="etildebelow" unicode="&#x1e1b;" horiz-adv-x="1170" 
d="M592 945c-172 0 -292 -126 -305 -317h594c-4 191 -118 317 -289 317zM876 279h172c-52 -185 -218 -298 -454 -298c-299 0 -486 216 -486 557c0 339 190 559 486 559c291 0 468 -207 468 -542v-66h-775v-8c9 -213 128 -348 311 -348c139 0 233 51 278 146zM745 -423
c-162 0 -192 168 -296 168c-57 0 -90 -38 -94 -151h-136c0 179 88 281 226 281c173 0 211 -168 296 -168c48 0 89 33 95 151h135c0 -171 -88 -281 -226 -281z" />
    <glyph glyph-name="Ecedillabreve" unicode="&#x1e1c;" horiz-adv-x="1220" 
d="M841 1873h154c0 -179 -138 -298 -364 -298s-364 119 -364 298h154c0 -105 80 -173 210 -173s210 68 210 173zM1078 1281h-714v-463h677v-160h-677v-496h714v-162h-363l-55 -142c136 0 215 -60 215 -163c0 -111 -91 -189 -244 -189c-59 0 -105 6 -146 18v108
c24 -7 86 -14 122 -14c77 0 119 26 119 73c0 46 -43 65 -149 65h-59v84l63 160h-397v1443h894v-162z" />
    <glyph glyph-name="ecedillabreve" unicode="&#x1e1d;" horiz-adv-x="1170" 
d="M802 1556h154c0 -189 -136 -328 -364 -328s-364 139 -364 328h154c0 -115 74 -200 210 -200s210 85 210 200zM287 628h594c-4 191 -118 317 -289 317c-172 0 -292 -126 -305 -317zM1062 489h-775v-8c9 -213 128 -348 311 -348c139 0 233 51 278 146h172
c-46 -163 -181 -271 -375 -293l-49 -128c136 0 215 -60 215 -163c0 -111 -91 -189 -244 -189c-59 0 -105 6 -146 18v108c24 -7 86 -14 122 -14c77 0 119 26 119 73c0 46 -43 65 -149 65h-59v84l57 144c-267 25 -431 235 -431 554c0 339 190 559 486 559
c291 0 468 -207 468 -542v-66z" />
    <glyph glyph-name="Fdotaccent" unicode="&#x1e1e;" horiz-adv-x="1172" 
d="M364 0h-180v1443h876v-162h-696v-496h639v-160h-639v-625zM622 1575c-67 0 -121 54 -121 121s54 121 121 121s121 -54 121 -121s-54 -121 -121 -121z" />
    <glyph glyph-name="fdotaccent" unicode="&#x1e1f;" horiz-adv-x="726" 
d="M234 0v934h-181v144h181v105c0 221 115 313 323 313c34 0 64 -3 106 -10v-144c-23 5 -62 9 -96 9c-103 0 -161 -52 -161 -173v-100h247v-144h-247v-934h-172zM429 1625c-67 0 -121 54 -121 121s54 121 121 121s121 -54 121 -121s-54 -121 -121 -121z" />
    <glyph glyph-name="Gmacron" unicode="&#x1e20;" horiz-adv-x="1529" 
d="M1395 558c0 -356 -244 -592 -613 -592c-399 0 -654 294 -654 756c0 456 259 755 654 755c320 0 552 -178 604 -464h-183c-62 195 -207 298 -421 298c-286 0 -469 -230 -469 -589c0 -364 180 -590 470 -590c258 0 433 165 433 409v35h-406v158h585v-176zM1119 1620h-674
v136h674v-136z" />
    <glyph glyph-name="gmacron" unicode="&#x1e21;" horiz-adv-x="1248" 
d="M918 555c0 235 -121 387 -320 387c-200 0 -312 -152 -312 -387s112 -387 312 -387s320 152 320 387zM606 -414c-260 0 -426 117 -452 295h182c19 -88 115 -145 270 -145c193 0 308 95 308 254v212h-16c-68 -119 -190 -186 -338 -186c-279 0 -452 216 -452 539
s175 542 452 542c151 0 284 -74 346 -190h16v171h164v-1097c0 -241 -186 -395 -480 -395zM931 1286h-674v136h674v-136z" />
    <glyph glyph-name="Hdotaccent" unicode="&#x1e22;" horiz-adv-x="1520" 
d="M1336 0h-180v657h-792v-657h-180v1443h180v-624h792v624h180v-1443zM760 1575c-67 0 -121 54 -121 121s54 121 121 121s121 -54 121 -121s-54 -121 -121 -121z" />
    <glyph glyph-name="hdotaccent" unicode="&#x1e23;" horiz-adv-x="1236" 
d="M172 0v1506h172v-598h16c54 119 177 189 342 189c245 0 382 -146 382 -399v-698h-172v656c0 191 -84 286 -259 286c-193 0 -309 -122 -309 -304v-638h-172zM258 1638c-67 0 -121 54 -121 121s54 121 121 121s121 -54 121 -121s-54 -121 -121 -121z" />
    <glyph glyph-name="Hdotbelow" unicode="&#x1e24;" horiz-adv-x="1520" 
d="M1336 0h-180v657h-792v-657h-180v1443h180v-624h792v624h180v-1443zM760 -402c-67 0 -121 54 -121 121s54 121 121 121s121 -54 121 -121s-54 -121 -121 -121z" />
    <glyph glyph-name="hdotbelow" unicode="&#x1e25;" horiz-adv-x="1236" 
d="M172 0v1506h172v-598h16c54 119 177 189 342 189c245 0 382 -146 382 -399v-698h-172v656c0 191 -84 286 -259 286c-193 0 -309 -122 -309 -304v-638h-172zM633 -402c-67 0 -121 54 -121 121s54 121 121 121s121 -54 121 -121s-54 -121 -121 -121z" />
    <glyph glyph-name="Hdieresis" unicode="&#x1e26;" horiz-adv-x="1520" 
d="M1336 0h-180v657h-792v-657h-180v1443h180v-624h792v624h180v-1443zM558 1575c-67 0 -121 54 -121 121s54 121 121 121s121 -54 121 -121s-54 -121 -121 -121zM962 1575c-67 0 -121 54 -121 121s54 121 121 121s121 -54 121 -121s-54 -121 -121 -121z" />
    <glyph glyph-name="hdieresis" unicode="&#x1e27;" horiz-adv-x="1236" 
d="M172 0v1506h172v-598h16c54 119 177 189 342 189c245 0 382 -146 382 -399v-698h-172v656c0 191 -84 286 -259 286c-193 0 -309 -122 -309 -304v-638h-172zM56 1638c-67 0 -121 54 -121 121s54 121 121 121s121 -54 121 -121s-54 -121 -121 -121zM460 1638
c-67 0 -121 54 -121 121s54 121 121 121s121 -54 121 -121s-54 -121 -121 -121z" />
    <glyph glyph-name="Hcedilla" unicode="&#x1e28;" horiz-adv-x="1520" 
d="M184 1443h180v-624h792v624h180v-1443h-180v657h-792v-657l-55 -142c136 0 216 -60 216 -163c0 -111 -91 -189 -244 -189c-59 0 -105 6 -146 18v108c24 -7 86 -14 122 -14c77 0 119 26 119 73c0 46 -43 65 -149 65h-59v84l63 160h-47v1443z" />
    <glyph glyph-name="hcedilla" unicode="&#x1e29;" horiz-adv-x="1236" 
d="M172 1506h172v-598h16c54 119 177 189 342 189c245 0 382 -146 382 -399v-698h-172v656c0 191 -84 286 -259 286c-193 0 -309 -122 -309 -304v-638l-55 -142c136 0 215 -60 215 -163c0 -111 -91 -189 -244 -189c-59 0 -105 6 -146 18v108c24 -7 86 -14 122 -14
c77 0 119 26 119 73c0 46 -43 65 -149 65h-59v84l63 160h-38v1506z" />
    <glyph glyph-name="Hbrevebelow" unicode="&#x1e2a;" horiz-adv-x="1520" 
d="M1336 0h-180v657h-792v-657h-180v1443h180v-624h792v624h180v-1443zM396 -126h154c0 -105 80 -173 210 -173s210 68 210 173h154c0 -179 -138 -298 -364 -298s-364 119 -364 298z" />
    <glyph glyph-name="hbrevebelow" unicode="&#x1e2b;" horiz-adv-x="1236" 
d="M172 0v1506h172v-598h16c54 119 177 189 342 189c245 0 382 -146 382 -399v-698h-172v656c0 191 -84 286 -259 286c-193 0 -309 -122 -309 -304v-638h-172zM269 -126h154c0 -105 80 -173 210 -173s210 68 210 173h154c0 -179 -138 -298 -364 -298s-364 119 -364 298z" />
    <glyph glyph-name="Itildebelow" unicode="&#x1e2c;" horiz-adv-x="548" 
d="M364 0h-180v1443h180v-1443zM424 -423c-162 0 -192 168 -296 168c-57 0 -90 -38 -94 -151h-136c0 179 88 281 226 281c173 0 211 -168 296 -168c48 0 89 33 95 151h135c0 -171 -88 -281 -226 -281z" />
    <glyph glyph-name="itildebelow" unicode="&#x1e2d;" horiz-adv-x="504" 
d="M166 0v1078h172v-1078h-172zM252 1297c-66 0 -120 54 -120 120s54 120 120 120s120 -54 120 -120s-54 -120 -120 -120zM402 -423c-162 0 -192 168 -296 168c-57 0 -90 -38 -94 -151h-136c0 179 88 281 226 281c173 0 211 -168 296 -168c48 0 89 33 95 151h135
c0 -171 -88 -281 -226 -281z" />
    <glyph glyph-name="Idieresisacute" unicode="&#x1e2e;" horiz-adv-x="548" 
d="M364 0h-180v1443h180v-1443zM186 1873l230 222h227l-281 -222h-176zM72 1575c-67 0 -121 54 -121 121s54 121 121 121s121 -54 121 -121s-54 -121 -121 -121zM476 1575c-67 0 -121 54 -121 121s54 121 121 121s121 -54 121 -121s-54 -121 -121 -121z" />
    <glyph glyph-name="idieresisacute" unicode="&#x1e2f;" horiz-adv-x="516" 
d="M172 0v1078h172v-1078h-172zM158 1575l190 298h198l-218 -298h-170zM56 1228c-67 0 -121 54 -121 121s54 121 121 121s121 -54 121 -121s-54 -121 -121 -121zM460 1228c-67 0 -121 54 -121 121s54 121 121 121s121 -54 121 -121s-54 -121 -121 -121z" />
    <glyph glyph-name="Kacute" unicode="&#x1e30;" horiz-adv-x="1349" 
d="M364 0h-180v1443h180v-701h16l632 701h226l-577 -623l630 -820h-233l-521 695l-173 -191v-504zM547 1575l310 298h226l-332 -298h-204z" />
    <glyph glyph-name="kacute" unicode="&#x1e31;" horiz-adv-x="1112" 
d="M360 607l468 471h211l-464 -462l495 -616h-219l-404 505l-103 -96v-409h-172v1506h172v-899h16zM152 1638l310 298h226l-332 -298h-204z" />
    <glyph glyph-name="Kdotbelow" unicode="&#x1e32;" horiz-adv-x="1349" 
d="M364 0h-180v1443h180v-701h16l632 701h226l-577 -623l630 -820h-233l-521 695l-173 -191v-504zM653 -402c-67 0 -121 54 -121 121s54 121 121 121s121 -54 121 -121s-54 -121 -121 -121z" />
    <glyph glyph-name="kdotbelow" unicode="&#x1e33;" horiz-adv-x="1112" 
d="M360 607l468 471h211l-464 -462l495 -616h-219l-404 505l-103 -96v-409h-172v1506h172v-899h16zM603 -402c-67 0 -121 54 -121 121s54 121 121 121s121 -54 121 -121s-54 -121 -121 -121z" />
    <glyph glyph-name="Klinebelow" unicode="&#x1e34;" horiz-adv-x="1349" 
d="M364 0h-180v1443h180v-701h16l632 701h226l-577 -623l630 -820h-233l-521 695l-173 -191v-504zM990 -348h-674v136h674v-136z" />
    <glyph glyph-name="klinebelow" unicode="&#x1e35;" horiz-adv-x="1112" 
d="M360 607l468 471h211l-464 -462l495 -616h-219l-404 505l-103 -96v-409h-172v1506h172v-899h16zM940 -348h-674v136h674v-136z" />
    <glyph glyph-name="Ldotbelow" unicode="&#x1e36;" horiz-adv-x="1163" 
d="M1060 162v-162h-876v1443h180v-1281h696zM622 -402c-67 0 -121 54 -121 121s54 121 121 121s121 -54 121 -121s-54 -121 -121 -121z" />
    <glyph glyph-name="ldotbelow" unicode="&#x1e37;" horiz-adv-x="516" 
d="M172 0v1506h172v-1506h-172zM258 -402c-67 0 -121 54 -121 121s54 121 121 121s121 -54 121 -121s-54 -121 -121 -121z" />
    <glyph glyph-name="Ldotbelowmacron" unicode="&#x1e38;" horiz-adv-x="1163" 
d="M1060 162v-162h-876v1443h180v-1281h696zM622 -402c-67 0 -121 54 -121 121s54 121 121 121s121 -54 121 -121s-54 -121 -121 -121zM611 1620h-674v136h674v-136z" />
    <glyph glyph-name="ldotbelowmacron" unicode="&#x1e39;" horiz-adv-x="516" 
d="M172 0v1506h172v-1506h-172zM258 -402c-67 0 -121 54 -121 121s54 121 121 121s121 -54 121 -121s-54 -121 -121 -121zM595 1683h-674v136h674v-136z" />
    <glyph glyph-name="Llinebelow" unicode="&#x1e3a;" horiz-adv-x="1163" 
d="M1060 162v-162h-876v1443h180v-1281h696zM959 -348h-674v136h674v-136z" />
    <glyph glyph-name="llinebelow" unicode="&#x1e3b;" horiz-adv-x="516" 
d="M172 0v1506h172v-1506h-172zM595 -348h-674v136h674v-136z" />
    <glyph glyph-name="Lcircumflexbelow" unicode="&#x1e3c;" horiz-adv-x="1163" 
d="M1060 162v-162h-876v1443h180v-1281h696zM704 -142l300 -290h-202l-172 173h-16l-172 -173h-202l300 290h164z" />
    <glyph glyph-name="lcircumflexbelow" unicode="&#x1e3d;" horiz-adv-x="516" 
d="M172 0v1506h172v-1506h-172zM340 -142l300 -290h-202l-172 173h-16l-172 -173h-202l300 290h164z" />
    <glyph glyph-name="Macute" unicode="&#x1e3e;" horiz-adv-x="1790" 
d="M352 0h-168v1443h209l494 -1194h16l494 1194h209v-1443h-168v1102h-12l-455 -1092h-152l-455 1092h-12v-1102zM789 1575l310 298h226l-332 -298h-204z" />
    <glyph glyph-name="macute" unicode="&#x1e3f;" horiz-adv-x="1788" 
d="M162 0v1078h164v-170h16c49 120 157 189 301 189c146 0 248 -77 298 -189h16c58 114 181 189 330 189c220 0 343 -126 343 -352v-745h-172v705c0 159 -75 237 -227 237c-150 0 -250 -112 -250 -249v-693h-172v732c0 128 -89 210 -225 210c-141 0 -250 -122 -250 -274
v-668h-172zM782 1263l252 338h220l-278 -338h-194z" />
    <glyph glyph-name="Mdotaccent" unicode="&#x1e40;" horiz-adv-x="1790" 
d="M352 0h-168v1443h209l494 -1194h16l494 1194h209v-1443h-168v1102h-12l-455 -1092h-152l-455 1092h-12v-1102zM895 1575c-67 0 -121 54 -121 121s54 121 121 121s121 -54 121 -121s-54 -121 -121 -121z" />
    <glyph glyph-name="mdotaccent" unicode="&#x1e41;" horiz-adv-x="1788" 
d="M162 0v1078h164v-170h16c49 120 157 189 301 189c146 0 248 -77 298 -189h16c58 114 181 189 330 189c220 0 343 -126 343 -352v-745h-172v705c0 159 -75 237 -227 237c-150 0 -250 -112 -250 -249v-693h-172v732c0 128 -89 210 -225 210c-141 0 -250 -122 -250 -274
v-668h-172zM896 1287c-70 0 -128 58 -128 128s58 127 128 127s128 -57 128 -127s-58 -128 -128 -128z" />
    <glyph glyph-name="Mdotbelow" unicode="&#x1e42;" horiz-adv-x="1790" 
d="M352 0h-168v1443h209l494 -1194h16l494 1194h209v-1443h-168v1102h-12l-455 -1092h-152l-455 1092h-12v-1102zM895 -402c-67 0 -121 54 -121 121s54 121 121 121s121 -54 121 -121s-54 -121 -121 -121z" />
    <glyph glyph-name="mdotbelow" unicode="&#x1e43;" horiz-adv-x="1788" 
d="M162 0v1078h164v-170h16c49 120 157 189 301 189c146 0 248 -77 298 -189h16c58 114 181 189 330 189c220 0 343 -126 343 -352v-745h-172v705c0 159 -75 237 -227 237c-150 0 -250 -112 -250 -249v-693h-172v732c0 128 -89 210 -225 210c-141 0 -250 -122 -250 -274
v-668h-172zM896 -402c-67 0 -121 54 -121 121s54 121 121 121s121 -54 121 -121s-54 -121 -121 -121z" />
    <glyph glyph-name="Ndotaccent" unicode="&#x1e44;" horiz-adv-x="1520" 
d="M362 0h-178v1443h175l783 -1123h16v1123h178v-1443h-175l-783 1119h-16v-1119zM760 1575c-67 0 -121 54 -121 121s54 121 121 121s121 -54 121 -121s-54 -121 -121 -121z" />
    <glyph glyph-name="ndotaccent" unicode="&#x1e45;" horiz-adv-x="1215" 
d="M162 0v1078h164v-170h16c54 119 179 189 344 189c242 0 377 -143 377 -399v-698h-172v656c0 194 -82 286 -254 286c-189 0 -303 -115 -303 -304v-638h-172zM627 1287c-70 0 -128 58 -128 128s58 127 128 127s128 -57 128 -127s-58 -128 -128 -128z" />
    <glyph glyph-name="Ndotbelow" unicode="&#x1e46;" horiz-adv-x="1520" 
d="M362 0h-178v1443h175l783 -1123h16v1123h178v-1443h-175l-783 1119h-16v-1119zM760 -402c-67 0 -121 54 -121 121s54 121 121 121s121 -54 121 -121s-54 -121 -121 -121z" />
    <glyph glyph-name="ndotbelow" unicode="&#x1e47;" horiz-adv-x="1215" 
d="M162 0v1078h164v-170h16c54 119 179 189 344 189c242 0 377 -143 377 -399v-698h-172v656c0 194 -82 286 -254 286c-189 0 -303 -115 -303 -304v-638h-172zM613 -402c-67 0 -121 54 -121 121s54 121 121 121s121 -54 121 -121s-54 -121 -121 -121z" />
    <glyph glyph-name="Nlinebelow" unicode="&#x1e48;" horiz-adv-x="1520" 
d="M362 0h-178v1443h175l783 -1123h16v1123h178v-1443h-175l-783 1119h-16v-1119zM1097 -348h-674v136h674v-136z" />
    <glyph glyph-name="nlinebelow" unicode="&#x1e49;" horiz-adv-x="1215" 
d="M162 0v1078h164v-170h16c54 119 179 189 344 189c242 0 377 -143 377 -399v-698h-172v656c0 194 -82 286 -254 286c-189 0 -303 -115 -303 -304v-638h-172zM950 -348h-674v136h674v-136z" />
    <glyph glyph-name="Ncircumflexbelow" unicode="&#x1e4a;" horiz-adv-x="1520" 
d="M362 0h-178v1443h175l783 -1123h16v1123h178v-1443h-175l-783 1119h-16v-1119zM842 -142l300 -290h-202l-172 173h-16l-172 -173h-202l300 290h164z" />
    <glyph glyph-name="ncircumflexbelow" unicode="&#x1e4b;" horiz-adv-x="1215" 
d="M162 0v1078h164v-170h16c54 119 179 189 344 189c242 0 377 -143 377 -399v-698h-172v656c0 194 -82 286 -254 286c-189 0 -303 -115 -303 -304v-638h-172zM695 -142l300 -290h-202l-172 173h-16l-172 -173h-202l300 290h164z" />
    <glyph glyph-name="Otildeacute" unicode="&#x1e4c;" horiz-adv-x="1579" 
d="M791 1477c410 0 660 -292 660 -755c0 -461 -248 -756 -660 -756c-414 0 -663 294 -663 756c0 464 255 755 663 755zM791 1311c-294 0 -478 -228 -478 -589c0 -358 178 -590 478 -590c296 0 475 232 475 590c0 361 -180 589 -475 589zM765 1873l220 222h218l-248 -222
h-190zM931 1575c-170 0 -168 128 -276 128c-57 0 -90 -38 -94 -111h-136c0 141 92 241 226 241c170 0 168 -128 276 -128c48 0 89 33 95 111h135c0 -133 -92 -241 -226 -241z" />
    <glyph glyph-name="otildeacute" unicode="&#x1e4d;" horiz-adv-x="1210" 
d="M605 136c204 0 319 148 319 403c0 256 -115 403 -319 403s-319 -147 -319 -403c0 -255 115 -403 319 -403zM605 -19c-307 0 -497 212 -497 558c0 347 190 558 497 558s497 -211 497 -558c0 -346 -190 -558 -497 -558zM509 1625l200 248h214l-230 -248h-184zM467 1368
c-70 0 -98 -44 -98 -157h-142c0 182 87 291 232 291c160 0 204 -157 284 -157c70 0 98 44 98 157h142c0 -182 -87 -291 -232 -291c-160 0 -204 157 -284 157z" />
    <glyph glyph-name="Otildedieresis" unicode="&#x1e4e;" horiz-adv-x="1579" 
d="M791 1477c410 0 660 -292 660 -755c0 -461 -248 -756 -660 -756c-414 0 -663 294 -663 756c0 464 255 755 663 755zM791 1311c-294 0 -478 -228 -478 -589c0 -358 178 -590 478 -590c296 0 475 232 475 590c0 361 -180 589 -475 589zM931 1566c-170 0 -168 128 -276 128
c-57 0 -90 -38 -94 -111h-136c0 141 92 241 226 241c170 0 168 -128 276 -128c48 0 89 33 95 111h135c0 -133 -92 -241 -226 -241zM589 1889c-69 0 -117 43 -117 103s48 103 117 103s117 -43 117 -103s-48 -103 -117 -103zM993 1889c-69 0 -117 43 -117 103s48 103 117 103
s117 -43 117 -103s-48 -103 -117 -103z" />
    <glyph glyph-name="otildedieresis" unicode="&#x1e4f;" horiz-adv-x="1210" 
d="M605 136c204 0 319 148 319 403c0 256 -115 403 -319 403s-319 -147 -319 -403c0 -255 115 -403 319 -403zM605 -19c-307 0 -497 212 -497 558c0 347 190 558 497 558s497 -211 497 -558c0 -346 -190 -558 -497 -558zM403 1639c-65 0 -117 52 -117 117s52 117 117 117
s117 -52 117 -117s-52 -117 -117 -117zM807 1639c-65 0 -117 52 -117 117s52 117 117 117s117 -52 117 -117s-52 -117 -117 -117zM467 1388c-70 0 -98 -44 -98 -157h-142c0 182 87 291 232 291c160 0 204 -157 284 -157c70 0 98 44 98 157h142c0 -182 -87 -291 -232 -291
c-160 0 -204 157 -284 157z" />
    </font>
</defs>
</svg>
